<svg xmlns="http://www.w3.org/2000/svg">
<defs>
<font
   id="FontID3"
   font-variant="normal"
   font-style="normal"
   font-weight="400"
   horiz-origin-x="0"
   horiz-origin-y="0"
   horiz-adv-x="90"
   vert-origin-x="45"
   vert-origin-y="90"
   vert-adv-y="90"
   style="font-style:normal;font-variant:normal;font-weight:400">
	<font-face
   font-family="Verdana"
   id="font-face7">
	</font-face>
   <missing-glyph
   id="missing-glyph9"><path
     d="M0 0z"
     id="path11" /></missing-glyph>
   <glyph
   unicode="."
   horiz-adv-x="363"
   id="glyph13"><path
     d="M240.16 0l-116.659 0 0 139.172 116.659 0 0 -139.172z"
     id="path15" /></glyph>
   <glyph
   unicode=","
   horiz-adv-x="363"
   id="glyph17"><path
     d="M280.835 139.172l-137.674 -319.829 -71.3273 0 84.9935 319.829 124.008 0z"
     id="path19" /></glyph>
   <glyph
   unicode=" "
   horiz-adv-x="351"
   id="glyph21" />
   <glyph
   unicode="8"
   horiz-adv-x="635"
   id="glyph23"><path
     d="M576.166 202.664c0,-62.8239 -24.4979,-115.16 -73.4937,-156.827 -48.9958,-41.6667 -110.666,-62.5 -184.848,-62.5 -78.8184,0 -141.501,20.3272 -188.33,61.0018 -46.6675,40.6544 -69.9911,92.8288 -69.9911,156.321 0,40.3304 11.6618,76.8343 35.1676,109.674 23.3236,32.6571 56.4869,58.6735 99.1659,77.8264l0 3.01668c-39.1764,20.8333 -68.007,43.4888 -86.8359,68.3309 -18.667,24.6599 -28.0005,55.6568 -28.0005,92.6668 0,54.8267 22.4935,100.32 67.3388,136.824 44.987,36.5039 102.162,54.6647 171.485,54.6647 72.6838,0 130.507,-17.4927 173.834,-52.3364 43.3471,-34.8235 65.0105,-79.0006 65.0105,-132.653 0,-33.0013 -10.3458,-65.3345 -30.835,-96.9995 -20.5094,-31.8473 -50.6762,-56.5071 -90.3385,-74.506l0 -2.83447c45.6754,-19.6591 80.4989,-43.671 104.511,-72.3397 24.1537,-28.6686 36.1597,-65.1523 36.1597,-109.329zm-115.667 354.997c0,34.6817 -13.5042,62.5 -40.3304,83.1714 -26.8262,20.6714 -61.1638,30.9969 -102.83,30.9969 -40.9985,0 -74.668,-9.8194 -100.846,-29.3367 -26.1581,-19.4971 -39.3181,-45.8171 -39.3181,-79.0006 0,-23.4856 6.661,-43.833 19.821,-60.8196 13.1803,-17.1688 33.0013,-32.3332 59.8477,-45.6754 11.9857,-5.8309 29.3165,-13.5042 51.9922,-22.9997 22.4935,-9.3335 44.6631,-17.1688 66.1646,-23.3236 32.1712,21.5015 54.5028,43.6508 66.9947,66.8327 12.3299,23.1616 18.505,49.8259 18.505,80.1547zm15.0024 -364.33c0,30.0049 -6.661,53.9966 -19.8413,71.9955 -13.16,18.1811 -38.9942,36.1799 -77.3202,54.5028 -15.3466,7.16715 -32.0092,13.8282 -50.332,20.0032 -18.1811,6.17509 -42.517,14.8405 -72.6838,25.8341 -29.3165,-15.8325 -52.8223,-37.496 -70.4972,-64.8283 -17.8369,-27.3324 -26.6642,-58.3293 -26.6642,-92.8288 0,-44.0152 15.1644,-80.1749 45.3312,-108.844 30.3288,-28.6686 68.6751,-43.0029 115.343,-43.0029 47.4976,0 85.4997,12.168 114.006,36.6659 28.4864,24.3359 42.6587,57.8434 42.6587,100.502z"
     id="path25" /></glyph>
   <glyph
   unicode="–"
   horiz-adv-x="635"
   id="glyph27"><path
     d="M561.002 279.337l-486.334 0 0 78.1706 486.334 0 0 -78.1706z"
     id="path29" /></glyph>
   <glyph
   unicode="3"
   horiz-adv-x="635"
   id="glyph31"><path
     d="M506.843 349.996c15.4883,-13.9901 28.4864,-31.5031 38.488,-52.6603 10.1636,-21.1775 15.1644,-48.5099 15.1644,-81.9971 0,-33.1633 -5.99287,-63.6743 -17.9989,-91.3306 -12.168,-27.6765 -28.9925,-51.8505 -50.8382,-72.3397 -24.4979,-22.6757 -53.1665,-39.5003 -86.1678,-50.494 -32.981,-10.8317 -69.323,-16.3387 -108.661,-16.3387 -40.3304,0 -79.9927,4.83884 -119.169,14.3343 -38.9942,9.65743 -71.1654,20.1652 -96.1694,31.5031l0 102.162 7.34937 0c27.6563,-18.1608 60.1514,-33.3252 97.6676,-45.4932 37.334,-12.006 73.4937,-17.9989 108.317,-17.9989 20.5094,0 42.3348,3.48235 65.5167,10.3256 22.9997,6.82297 41.8286,16.8246 56.001,30.1668 14.9822,14.3343 26.1581,30.1668 33.4872,47.3356 7.32912,17.3307 10.9937,39.1561 10.9937,65.4964 0,25.9961 -4.15047,47.6595 -12.4919,64.6663 -8.15922,17.1688 -19.6591,30.4908 -34.3375,40.3304 -14.6582,10.0016 -32.3332,17.0068 -53.1665,20.6714 -20.8333,3.82653 -43.3269,5.66893 -67.3186,5.66893l-44.0152 0 0 81.005 34.1756 0c49.5019,0 88.8403,10.3256 118.339,30.9969 29.4987,20.6511 44.1569,50.8179 44.1569,90.6625 0,17.4927 -3.66456,32.8393 -11.1557,45.9994 -7.51134,13.16 -18.0191,23.9917 -31.3411,32.4951 -14.0104,8.5034 -28.9925,14.3343 -44.8453,17.6749 -15.9945,3.15841 -33.9934,4.81859 -54.1586,4.81859 -30.9969,0 -63.8362,-5.48672 -98.6597,-16.6626 -34.8437,-10.9937 -67.6628,-26.6642 -98.6799,-46.8294l-4.81859 0 0 102.162c23.1616,11.3379 53.9966,21.8456 92.4846,31.5031 38.6702,9.49546 76.0042,14.3343 112.002,14.3343 35.5118,0 66.8327,-3.34062 93.8411,-9.83965 27.0084,-6.49903 51.3241,-16.8246 73.1697,-31.1589 23.5058,-15.6706 41.1605,-34.4995 53.3285,-56.6691 12.006,-22.1696 17.9989,-48.0037 17.9989,-77.6644 0,-40.3304 -14.1723,-75.4981 -42.6587,-105.665 -28.5066,-30.1668 -62.1761,-49.1578 -100.846,-56.8311l0 -6.84321c15.6706,-2.65225 33.5075,-8.15922 53.6727,-16.5006 20.1652,-8.15922 37.334,-18.4848 51.3443,-30.9969z"
     id="path33" /></glyph>
   <glyph
   unicode="5"
   horiz-adv-x="635"
   id="glyph35"><path
     d="M564.828 231.009c0,-33.8516 -6.15484,-66.3468 -18.505,-97.1817 -12.3299,-30.9969 -29.3165,-56.993 -50.8179,-78.1706 -23.3439,-22.8175 -51.3443,-40.3304 -83.6775,-52.4984 -32.3332,-12.168 -69.9911,-18.3228 -112.488,-18.3228 -39.8445,0 -78.0086,4.17072 -114.836,12.4919 -36.6659,8.34143 -67.845,18.3431 -93.173,30.0049l0 102.992 6.84321 0c26.6642,-16.8246 57.8231,-31.3209 93.6589,-43.1649 35.8358,-11.8238 71.0034,-17.8167 105.503,-17.8167 22.9997,0 45.4932,3.32038 66.9947,9.8194 21.6634,6.49903 40.9985,17.8369 57.8434,34.1756 14.3343,13.9901 25.166,30.6527 32.4951,50.332 7.32912,19.4971 10.9937,42.1728 10.9937,67.8247 0,25.004 -4.33269,46.1816 -12.9981,63.5123 -8.5034,17.1688 -20.4891,30.9969 -35.8358,41.4845 -16.8246,12.3502 -37.496,21.0155 -61.6699,26.1783 -24.3157,5.00081 -51.3241,7.49109 -81.329,7.49109 -28.6686,0 -56.1629,-2.00437 -82.6652,-5.8309 -26.6642,-3.82653 -49.5019,-7.83528 -68.6548,-11.6618l0 374.332 437.5 0 0 -85.4997 -343.335 0 0 -193.169c13.9901,1.17428 28.3244,2.16634 42.9827,2.83447 14.6785,0.668124 27.3526,0.992063 38.0021,0.992063 39.5003,0 73.9998,-3.32038 103.499,-10.0016 29.6809,-6.661 56.8513,-18.4848 81.6731,-35.3296 25.9961,-17.9989 46.1613,-41.1605 60.4956,-69.4849 14.3343,-28.1827 21.5015,-63.6743 21.5015,-106.333z"
     id="path37" /></glyph>
   <glyph
   unicode="9"
   horiz-adv-x="635"
   id="glyph39"><path
     d="M569.667 407.171c0,-63.5123 -7.16715,-121.011 -21.6634,-172.842 -14.4963,-51.6683 -36.3419,-95.8252 -65.6787,-132.329 -29.6607,-37.01 -66.6505,-65.6584 -111.334,-85.8236 -44.5011,-20.1855 -96.9995,-30.349 -157.151,-30.349 -16.8448,0 -32.8393,0.830094 -47.8418,2.6725 -15.0024,1.8424 -28.3244,4.65662 -40.0065,8.5034l0 93.335 4.83884 0c9.49546,-4.83884 22.8377,-9.49546 40.0065,-13.8484 17.3307,-4.49466 36.5039,-6.661 57.6612,-6.661 71.8335,0 128.158,21.5015 168.995,64.6663 40.8366,43.1649 64.5044,102.668 71.0034,178.511 -30.1668,-18.3431 -58.6735,-31.3411 -85.3377,-39.1764 -26.6642,-7.83528 -55.8188,-11.6618 -87.3218,-11.6618 -30.0049,0 -57.0133,2.99644 -81.329,8.82734 -24.174,5.8309 -48.5099,17.1688 -73.0078,34.1756 -28.5066,19.821 -50.1701,44.987 -64.6663,75.66 -14.4963,30.673 -21.6634,67.1769 -21.6634,109.836 0,74.1618 24.3359,134.657 73.1697,181.163 48.8338,46.5055 108.499,69.8291 178.652,69.8291 35.1676,0 67.683,-5.48672 97.6676,-16.3184 30.0049,-11.0139 56.1629,-27.3324 78.6767,-49.178 27.6563,-26.9882 48.8338,-61.6699 63.8362,-104.167 15.0024,-42.4968 22.4935,-97.3235 22.4935,-164.824zm-98.6597 20.9953c0,50.332 -5.18303,91.0066 -15.6706,121.497 -10.3458,30.673 -24.6801,54.3408 -42.8409,71.3273 -15.3264,14.6785 -31.827,25.166 -49.3197,31.5031 -17.513,6.33706 -36.6861,9.51571 -57.1753,9.51571 -46.8294,0 -83.8395,-14.6785 -111.01,-44.0152 -27.1501,-29.1545 -40.6544,-70.4972 -40.6544,-123.502 0,-30.835 4.33269,-56.1629 13.16,-75.66 8.82734,-19.4971 23.6678,-36.6659 44.3392,-51.3241 14.6582,-10.0016 30.835,-16.8448 48.3277,-20.1855 17.6749,-3.48235 37.172,-5.16278 58.6735,-5.16278 25.328,0 51.0002,3.50259 76.9963,10.3458 25.9961,6.82297 50.494,16.6626 73.1697,29.6607 0.323939,6.82297 0.830094,13.6662 1.33625,20.3272 0.485909,6.68124 0.668124,15.1644 0.668124,25.6722z"
     id="path41" /></glyph>
   <glyph
   unicode="1"
   horiz-adv-x="635"
   id="glyph43"><path
     d="M529.499 0l-393.667 0 0 74.1618 151.34 0 0 487.508 -151.34 0 0 66.3265c20.5094,0 42.4968,1.66019 65.8406,5.16278 23.4856,3.34062 41.3225,8.34143 53.3285,14.8405 15.0024,8.15922 26.6642,18.505 35.3296,30.9969 8.66537,12.5121 13.6662,29.3367 15.0024,50.494l75.66 0 0 -655.329 148.506 0 0 -74.1618z"
     id="path45" /></glyph>
   <glyph
   unicode="2"
   horiz-adv-x="635"
   id="glyph47"><path
     d="M570.659 0l-491.983 0 0 102c34.1553,29.3367 68.3309,58.6735 102.648,87.99 34.3375,29.1748 66.3468,58.3495 95.8455,87.3421 62.5,60.4956 105.321,108.661 128.32,144.335 23.1819,35.4916 34.6817,73.9998 34.6817,115.343 0,37.8199 -12.5121,67.3186 -37.334,88.6581 -24.8421,21.3395 -59.6655,31.989 -104.167,31.989 -29.6809,0 -61.6699,-5.16278 -96.1694,-15.6503 -34.4995,-10.3458 -68.1689,-26.3403 -101.008,-47.8418l-4.81859 0 0 102.506c23.1616,11.4998 53.9966,21.8254 92.4846,31.3209 38.5083,9.51571 75.8422,14.1723 112.002,14.1723 74.506,0 132.997,-17.9989 175.17,-53.9966 42.3348,-35.9977 63.4921,-84.6696 63.4921,-146.178 0,-27.6563 -3.48235,-53.4904 -10.4875,-77.3202 -7.00518,-24.012 -17.3307,-46.6675 -30.9969,-68.1689 -12.6741,-20.1652 -27.5146,-40.0065 -44.6631,-59.6655 -17.0068,-19.4971 -37.8401,-41.1605 -62.1761,-64.8283 -34.8437,-34.1756 -70.8414,-67.3388 -107.831,-99.3481 -37.172,-32.151 -71.8335,-61.8319 -104.005,-89.1642l390.994 0 0 -83.4953z"
     id="path49" /></glyph>
   <glyph
   unicode="0"
   horiz-adv-x="635"
   id="glyph51"><path
     d="M569.667 363.662c0,-130.487 -20.5094,-226.17 -61.3257,-287.334 -40.8366,-61.0018 -104.167,-91.4925 -190.011,-91.4925 -87.3218,0 -150.996,30.9969 -191.165,92.8288 -40.1684,61.8319 -60.3337,156.827 -60.3337,285.168 0,129.171 20.3272,224.672 61.0018,286.342 40.6746,61.6497 104.167,92.4846 190.496,92.4846 87.1599,0 150.834,-31.3209 191.003,-93.9828 40.1684,-62.6822 60.3337,-157.333 60.3337,-284.014zm-128.503 -221.655c11.4998,26.3201 19.1731,57.317 23.1616,92.9908 4.17072,35.6738 6.17509,78.6767 6.17509,128.665 0,49.5019 -2.00437,92.5049 -6.17509,129.009 -3.9885,36.5039 -11.8238,67.3388 -23.6678,92.8288 -11.3176,25.004 -26.8262,43.995 -46.4853,56.6691 -19.6793,12.6741 -45.0073,18.9909 -75.8422,18.9909 -30.673,0 -56.001,-6.31681 -76.0042,-18.9909 -20.0032,-12.6741 -35.8358,-32.0092 -47.4976,-57.6612 -11.1557,-24.174 -18.667,-55.5151 -22.6555,-94.3473 -4.17072,-38.6702 -6.17509,-81.167 -6.17509,-127.328 0,-50.8382 1.8424,-93.335 5.32475,-127.49 3.68481,-34.1756 11.3379,-64.8486 23.0199,-91.8367 10.6495,-25.5102 25.8139,-44.8453 45.6552,-58.1673 19.6591,-13.3422 45.6754,-20.0032 78.3325,-20.0032 30.511,0 55.839,6.33706 76.0042,18.9909 20.1652,12.6741 35.8358,32.0092 46.8294,57.6814z"
     id="path53" /></glyph>
   <glyph
   unicode="6"
   horiz-adv-x="635"
   id="glyph55"><path
     d="M581.491 235.828c0,-73.8176 -24.3157,-134.151 -72.9875,-181.001 -48.6718,-46.6675 -108.337,-69.9911 -178.997,-69.9911 -35.8358,0 -68.3309,5.50696 -97.6676,16.6626 -29.3367,10.9937 -55.1709,27.4943 -77.6644,49.34 -28.0005,26.9882 -49.5019,62.662 -64.6663,107.325 -15.1846,44.6631 -22.6757,98.3358 -22.6757,161.18 0,64.3222 7.00518,121.497 20.8333,171.323 13.8282,49.8259 35.8358,94.0031 66.0026,132.835 28.6686,36.8278 65.6584,65.4964 110.828,86.1678 45.3312,20.6714 98.0118,30.9969 158.345,30.9969 19.1529,0 35.3296,-0.830094 48.3277,-2.49028 12.9981,-1.51846 26.1581,-4.5149 39.5003,-8.68562l0 -93.3147 -4.83884 0c-9.17153,4.81859 -22.8377,9.49546 -41.3225,13.8282 -18.3431,4.49466 -37.172,6.661 -56.3452,6.661 -69.9911,0 -125.83,-21.8254 -167.497,-65.6584 -41.6667,-43.833 -65.8406,-103.013 -72.6636,-177.498 27.3324,16.6626 54.1586,29.3165 80.6608,37.8199 26.6642,8.66537 57.3372,12.9981 92.1607,12.9981 30.835,0 58.1673,-2.83447 81.6731,-8.48316 23.6678,-5.66893 47.8418,-17.1688 72.5016,-34.5198 28.6686,-19.821 50.332,-44.8251 64.8283,-75.1539 14.4963,-30.3288 21.6634,-66.9947 21.6634,-110.342zm-99.1659 -3.82653c0,30.3288 -4.49466,55.3328 -13.484,75.1741 -8.84759,19.821 -23.6678,37.1518 -44.1772,51.8303 -14.8405,10.3256 -31.5031,17.1688 -49.6639,20.4891 -18.3431,3.17865 -37.334,4.83884 -57.1753,4.83884 -27.6563,0 -53.3285,-3.34062 -77.1582,-9.83965 -23.6678,-6.49903 -48.1657,-16.5006 -73.1697,-30.1668 -0.668124,-7.16715 -1.15403,-14.1521 -1.49822,-20.8333 -0.323939,-6.661 -0.506155,-15.0024 -0.506155,-25.166 0,-51.3241 5.345,-91.9987 15.8325,-121.821 10.6697,-29.6809 25.166,-53.1665 43.671,-70.4972 15.0024,-14.3343 31.1791,-24.8421 48.6718,-31.5031 17.3307,-6.68124 36.3419,-10.0016 56.8311,-10.0016 47.1736,0 84.3254,14.3343 111.334,43.1649 27.0084,28.8306 40.4924,70.3353 40.4924,124.332z"
     id="path57" /></glyph>
   <glyph
   unicode="’"
   horiz-adv-x="268"
   id="glyph59"><path
     d="M277.839 759.84l-132.329 -273 -67.3388 0 80.4989 273 119.169 0z"
     id="path61" /></glyph>
   <glyph
   unicode="I"
   horiz-adv-x="420"
   id="glyph63"><path
     d="M354.005 0l-287.01 0 0 74.1618 95.1774 0 0 578.677 -95.1774 0 0 74.1618 287.01 0 0 -74.1618 -95.1774 0 0 -578.677 95.1774 0 0 -74.1618z"
     id="path65" /></glyph>
   <glyph
   unicode="L"
   horiz-adv-x="556"
   id="glyph67"><path
     d="M557.661 0l-459.994 0 0 727 96.6756 0 0 -640.994 363.318 0 0 -86.0058z"
     id="path69" /></glyph>
   <glyph
   unicode="C"
   horiz-adv-x="698"
   id="glyph71"><path
     d="M659.176 52.6603c-17.8369,-7.65306 -34.1756,-15.0024 -48.5099,-21.8254 -14.4963,-6.84321 -33.5075,-14.0104 -56.993,-21.5015 -19.8413,-6.17509 -41.3427,-11.4998 -64.6663,-15.8325 -23.3439,-4.49466 -48.8338,-6.661 -76.8343,-6.661 -52.8426,0 -100.664,7.32912 -143.829,22.1696 -43.1851,14.8202 -80.6811,37.9819 -112.508,69.6672 -31.3411,30.8147 -55.677,70.1531 -73.3317,117.833 -17.513,47.6595 -26.3403,103.154 -26.3403,166.322 0,59.8275 8.5034,113.338 25.328,160.492 17.0068,47.3356 41.3427,87.1801 73.352,119.675 30.8147,31.5031 68.1487,55.677 111.982,72.3397 43.833,16.5006 92.3429,24.8218 145.833,24.8218 39.0144,0 78.0086,-4.65662 116.841,-14.1521 38.9942,-9.51571 82.1591,-26.0164 129.677,-49.8461l0 -114.654 -7.34937 0c-39.9862,33.4872 -79.6688,57.9851 -119.169,73.1495 -39.3181,15.3466 -81.4909,22.9997 -126.316,22.9997 -36.8481,0 -70.0113,-5.99287 -99.3481,-17.8167 -29.4987,-11.844 -55.8188,-30.349 -78.8184,-55.3328 -22.5138,-24.4979 -40.0065,-55.3328 -52.4984,-92.6668 -12.5121,-37.172 -18.8492,-80.1749 -18.8492,-129.009 0,-51.1621 6.84321,-95.1571 20.6714,-131.823 13.8282,-36.8481 31.665,-66.8327 53.5107,-89.8324 22.8175,-24.174 49.4817,-42.0109 79.8307,-53.5107 30.4908,-11.4998 62.662,-17.3307 96.4934,-17.3307 46.5055,0 90.1765,7.99725 130.831,23.9917 40.6746,15.8325 78.6767,39.8445 114.168,71.6715l6.84321 0 0 -113.338z"
     id="path73" /></glyph>
   <glyph
   unicode="G"
   horiz-adv-x="775"
   id="glyph75"><path
     d="M704.001 53.6727c-39.6623,-18.1811 -83.0094,-34.0136 -130.163,-47.4976 -47.0117,-13.5042 -92.5049,-20.3474 -136.338,-20.3474 -56.6691,0 -108.661,7.83528 -155.835,23.5058 -47.1736,15.5086 -87.3218,38.9942 -120.505,70.1733 -33.4872,31.665 -59.4833,71.1654 -77.6644,118.501 -18.1608,47.3356 -27.3324,102.668 -27.3324,166.161 0,116.335 34.0136,207.989 101.838,275.166 67.8247,67.1566 160.998,100.826 279.499,100.826 41.3427,0 83.4953,-5.00081 126.66,-14.8202 43.0029,-10.0016 89.5084,-26.8465 139.334,-50.6762l0 -114.654 -8.82734 0c-10.0016,7.81503 -24.6599,17.9989 -43.833,30.8147 -19.1731,12.6741 -38.1641,23.1819 -56.6691,31.6853 -22.4935,10.1636 -47.8418,18.4848 -76.3282,25.166 -28.5066,6.661 -60.8398,9.98137 -96.9995,9.98137 -81.329,0 -145.671,-26.1581 -193.007,-78.3325 -47.3356,-52.3162 -71.0034,-122.996 -71.0034,-212.16 0,-94.0031 24.6801,-167.173 74.1821,-219.489 49.4817,-52.1744 116.821,-78.3325 202.158,-78.3325 31.1589,0 62.338,3.15841 93.335,9.3335 31.1589,6.15484 58.3293,14.1521 81.8351,23.8298l0 178.167 -194.829 0 0 84.9935 290.492 0 0 -311.994z"
     id="path77" /></glyph>
   <glyph
   unicode="E"
   horiz-adv-x="632"
   id="glyph79"><path
     d="M576.672 0l-479.005 0 0 727 479.005 0 0 -86.0058 -382.329 0 0 -199.162 382.329 0 0 -86.0058 -382.329 0 0 -269.821 382.329 0 0 -86.0058z"
     id="path81" /></glyph>
   <glyph
   unicode="B"
   horiz-adv-x="685"
   id="glyph83"><path
     d="M645.995 223.66c0,-36.1597 -6.82297,-68.1689 -20.4891,-95.8252 -13.6662,-27.6765 -32.0092,-50.332 -55.1709,-68.3309 -27.3324,-21.5015 -57.3372,-36.6659 -90.1765,-45.8374 -32.6571,-9.17153 -74.1618,-13.6662 -124.656,-13.6662l-257.835 0 0 727 215.339 0c52.9843,0 92.8288,-2.00437 119.169,-5.8309 26.3201,-4.00875 51.4861,-12.006 75.66,-24.4979 26.6642,-14.0104 45.9994,-32.0092 58.1673,-53.8346 12.006,-22.0076 17.9989,-48.3277 17.9989,-79.0006 0,-34.4995 -8.82734,-63.8362 -26.3403,-88.0102 -17.6547,-24.3359 -40.9985,-43.833 -70.3353,-58.3293l0 -3.9885c49.178,-10.0016 87.8482,-31.665 116.173,-64.6663 28.3447,-33.0013 42.4968,-74.8502 42.4968,-125.182zm-162.658 327.502c0,17.6749 -2.99644,32.4951 -8.82734,44.5011 -5.85115,12.006 -15.3466,21.8456 -28.3447,29.3367 -15.1644,8.82734 -33.8314,14.1723 -55.6568,16.3387 -21.6837,2.16634 -48.6718,3.15841 -81.005,3.15841l-115.16 0 0 -209.994 125 0c30.1668,0 54.3205,1.49822 72.1574,4.65662 17.9989,2.99644 34.4995,9.51571 49.8259,19.3351 15.3466,9.67768 26.1783,22.3316 32.5154,37.8401 6.31681,15.3264 9.49546,33.6694 9.49546,54.8267zm61.9938 -331.491c0,29.3367 -4.33269,52.6603 -13.16,69.8291 -8.84759,17.3307 -24.6801,32.0092 -47.8418,43.995 -15.6706,8.17946 -34.6615,13.3422 -56.8311,15.8325 -22.3316,2.51053 -49.5019,3.66456 -81.329,3.66456l-151.826 0 0 -270.489 127.814 0c42.3348,0 77.0165,2.16634 104.005,6.661 27.0084,4.33269 49.178,12.3299 66.5087,24.174 18.1608,12.6539 31.5031,27.1704 39.9862,43.3269 8.5034,16.3387 12.6741,37.334 12.6741,63.0062z"
     id="path85" /></glyph>
   <glyph
   unicode="D"
   horiz-adv-x="770"
   id="glyph87"><path
     d="M711.836 362.832c0,-66.1646 -14.3343,-125.992 -43.1649,-179.665 -28.8306,-53.8346 -67.1769,-95.5013 -114.998,-125 -33.1633,-20.5094 -70.1733,-35.3296 -111.01,-44.5011 -40.9985,-9.17153 -94.6712,-13.6662 -161.504,-13.6662l-183.491 0 0 727 181.669 0c70.8212,0 127.328,-5.16278 169.157,-15.3264 41.8489,-10.3458 77.1785,-24.3359 106.171,-42.3348 49.5019,-30.835 88.0102,-72.0157 115.667,-123.502 27.6765,-51.3443 41.5047,-112.508 41.5047,-183.005zm-101.008 1.33625c0,56.993 -10.0016,104.997 -29.8226,144.173 -19.8413,38.9942 -49.5019,69.8291 -88.8403,92.1607 -28.6686,16.3387 -58.9974,27.6563 -91.3306,33.9934 -32.1712,6.33706 -70.8414,9.49546 -115.667,9.49546l-90.8244 0 0 -560.982 90.8244 0c46.5055,0 87.1599,3.48235 121.842,10.3256 34.6615,6.82297 66.4885,19.4971 95.481,38.0021 36.018,23.1616 63.1681,53.4904 81.167,91.3306 18.1811,37.6579 27.1704,84.9935 27.1704,141.501z"
     id="path89" /></glyph>
   <glyph
   unicode="M"
   horiz-adv-x="842"
   id="glyph91"><path
     d="M745.161 0l-96.6553 0 0 626.498 -202.178 -426.324 -57.6612 0 -200.66 426.324 0 -626.498 -90.3385 0 0 727 131.823 0 193.837 -404.843 187.5 404.843 134.333 0 0 -727z"
     id="path93" /></glyph>
   <glyph
   unicode="A"
   horiz-adv-x="683"
   id="glyph95"><path
     d="M670.999 0l-102.83 0 -71.1654 202.664 -315.011 0 -71.1654 -202.664 -98.1535 0 264.658 727 129.009 0 264.658 -727zm-204.325 285.674l-127.166 356.657 -127.834 -356.657 255.001 0z"
     id="path97" /></glyph>
   <glyph
   unicode="P"
   horiz-adv-x="602"
   id="glyph99"><path
     d="M573.17 507.329c0,-32.3332 -5.66893,-62.1558 -16.8448,-89.6704 -11.1557,-27.4943 -26.9882,-51.3241 -47.1534,-71.4893 -25.004,-25.004 -54.6647,-43.833 -88.8403,-56.3452 -34.1553,-12.4919 -77.3405,-18.829 -129.333,-18.829l-96.6553 0 0 -270.995 -96.6756 0 0 727 197.157 0c43.671,0 80.6811,-3.66456 110.848,-10.9937 30.3288,-7.34937 57.155,-18.8492 80.6608,-34.3375 27.6563,-18.667 48.9958,-41.6667 64.1602,-69.3432 15.1644,-27.6563 22.6757,-62.662 22.6757,-104.997zm-100.664 -2.49028c0,25.166 -4.33269,46.8294 -13.1803,65.4964 -8.82734,18.505 -22.1493,33.6694 -39.9862,45.3312 -15.6706,10.1636 -33.5075,17.3307 -53.5107,21.6634 -20.0032,4.49466 -45.3312,6.661 -75.822,6.661l-95.6633 0 0 -290.492 81.4909 0c38.9942,0 70.8414,3.50259 95.1571,10.5078 24.3359,6.98494 44.1772,18.1608 59.5036,33.4872 15.3466,15.5086 26.1783,32.0092 32.4951,49.34 6.33706,17.1688 9.51571,36.5039 9.51571,58.0053z"
     id="path101" /></glyph>
   <glyph
   unicode="U"
   horiz-adv-x="732"
   id="glyph103"><path
     d="M645.165 291.991c0,-52.8223 -5.8309,-98.8217 -17.3307,-137.998 -11.4998,-39.1561 -30.511,-71.8335 -56.8311,-97.8296 -25.166,-24.8218 -54.5028,-42.8207 -88.0102,-54.1586 -33.4872,-11.4998 -72.6636,-17.1688 -117.165,-17.1688 -45.6552,0 -85.3377,5.99287 -119.331,17.9989 -33.8314,12.168 -62.338,29.8226 -85.3377,53.3285 -26.5023,26.6642 -45.4932,58.8354 -56.993,96.6756 -11.4998,37.6579 -17.3307,84.1634 -17.3307,139.152l0 435.01 96.6553 0 0 -439.99c0,-39.3384 2.6725,-70.3353 8.01749,-93.173 5.48672,-22.8377 14.4963,-43.5091 27.1501,-61.9938 14.3343,-21.1775 33.8314,-37.172 58.3495,-47.8418 24.6599,-10.8317 54.1586,-16.1767 88.8201,-16.1767 34.8437,0 64.5044,5.345 88.8403,15.8325 24.4979,10.6697 43.995,26.6845 58.6735,48.1859 12.6539,18.4848 21.6634,39.8243 27.1501,63.654 5.345,24.012 8.01749,53.6727 8.01749,89.1642l0 442.339 96.6553 0 0 -435.01z"
     id="path105" /></glyph>
   <glyph
   unicode="S"
   horiz-adv-x="683"
   id="glyph107"><path
     d="M625.992 207.503c0,-28.3447 -6.661,-56.3452 -19.821,-84.0015 -13.1803,-27.6765 -31.665,-51.0002 -55.3328,-70.3353 -25.9961,-20.8333 -56.3452,-36.9898 -91.0066,-48.8338 -34.6615,-11.6618 -76.4901,-17.4927 -125.324,-17.4927 -52.3364,0 -99.51,4.81859 -141.339,14.6582 -41.8286,9.67768 -84.3456,24.174 -127.672,43.5091l0 120.991 6.84321 0c36.8278,-30.673 79.1626,-54.1586 127.328,-70.8414 48.1657,-16.4804 93.4969,-24.8218 135.832,-24.8218 59.8275,0 106.495,11.1557 139.84,33.6694 33.3252,22.4935 49.9879,52.3364 49.9879,89.8324 0,32.1712 -7.83528,56.001 -23.6678,71.3273 -15.8325,15.3264 -39.8243,27.1704 -71.9955,35.6738 -24.4979,6.49903 -50.8382,11.8238 -79.3246,15.9945 -28.5066,4.33269 -58.6735,9.65743 -90.6827,16.1767 -64.3222,13.6662 -112.164,36.9898 -143.161,69.9911 -31.1589,33.1633 -46.6675,76.1662 -46.6675,129.171 0,60.8196 25.6722,110.828 77.1785,149.66 51.3241,38.8322 116.659,58.3293 195.821,58.3293 51.0002,0 97.8296,-4.81859 140.509,-14.6582 42.6587,-9.67768 80.4989,-21.8254 113.338,-36.1597l0 -114.168 -6.84321 0c-27.6563,23.4856 -63.9982,42.8207 -109.167,58.3293 -45.0073,15.4883 -91.1686,23.1616 -138.322,23.1616 -51.6683,0 -93.335,-10.6697 -124.676,-32.1712 -31.5031,-21.5015 -47.1736,-49.1578 -47.1736,-82.9891 0,-30.3288 7.83528,-53.9966 23.5058,-71.3476 15.5086,-17.1485 43.0029,-30.4908 82.5032,-39.5003 20.8333,-4.65662 50.332,-10.1636 88.8403,-16.6626 38.326,-6.49903 70.8212,-13.16 97.6474,-20.0032 54.0168,-14.3343 94.6712,-35.9977 122.004,-64.9903 27.3324,-28.8306 40.9985,-69.3432 40.9985,-121.497z"
     id="path109" /></glyph>
   <glyph
   unicode="V"
   horiz-adv-x="683"
   id="glyph111"><path
     d="M670.999 727l-264.658 -727 -129.009 0 -264.658 727 103.661 0 227.992 -639.334 228.013 639.334 98.6597 0z"
     id="path113" /></glyph>
   <glyph
   unicode="R"
   horiz-adv-x="695"
   id="glyph115"><path
     d="M699.162 0l-125.486 0 -243.501 288.994 -135.832 0 0 -288.994 -96.6756 0 0 727 203.656 0c43.833,0 80.5191,-2.83447 109.836,-8.5034 29.1748,-5.66893 55.677,-15.8325 79.0006,-30.4908 26.3403,-16.6829 47.0117,-37.5162 61.8319,-62.8442 14.8405,-25.166 22.1696,-57.155 22.1696,-95.9872 0,-52.3364 -13.16,-96.1694 -39.5003,-131.499 -26.3201,-35.3499 -62.662,-62.0141 -108.823,-79.851l273.324 -317.825zm-225.988 522.332c0,20.8333 -3.66456,39.3384 -11.0139,55.4948 -7.32912,16.1767 -19.4971,29.6809 -36.3217,40.8366 -14.0104,9.3335 -30.673,15.9945 -49.8461,19.6793 -19.1529,3.82653 -41.8286,5.64869 -67.8247,5.64869l-113.824 0 0 -274.498 97.6474 0c30.673,0 57.3372,2.6725 80.1749,7.99725 22.6757,5.50696 42.0109,15.5086 58.0053,30.1668 14.6582,13.6662 25.49,29.3367 32.4951,47.0117 7.00518,17.8369 10.5078,40.3304 10.5078,67.6628z"
     id="path117" /></glyph>
   <glyph
   unicode="b"
   horiz-adv-x="622"
   id="glyph119"><path
     d="M570.335 276.826c0,-45.6552 -6.49903,-86.6537 -19.3351,-122.996 -12.8361,-36.5039 -30.1668,-67.1566 -51.9922,-91.8367 -22.9997,-25.6519 -48.5099,-44.987 -76.1662,-57.8231 -27.6765,-12.8361 -58.0053,-19.3351 -91.3508,-19.3351 -30.8147,0 -57.8231,3.66456 -80.9848,10.9937 -23.1819,7.32912 -45.8374,17.1688 -68.3309,29.4987l-5.85115 -25.328 -85.9856 0 0 759.84 91.8367 0 0 -271.663c25.6519,21.1573 52.9843,38.488 81.9971,51.9922 28.9925,13.5042 61.4877,20.3272 97.6676,20.3272 64.4841,0 115.322,-24.6599 152.656,-74.1618 37.172,-49.5019 55.839,-119.331 55.839,-209.508zm-94.6712 -2.49028c0,65.1725 -10.6697,114.654 -32.1712,148.324 -21.5015,33.6694 -56.1629,50.5143 -103.984,50.5143 -26.8465,0 -53.8346,-5.8309 -81.167,-17.3307 -27.3324,-11.4998 -52.6806,-26.5023 -76.1662,-44.6833l0 -312.5c25.9961,-11.8238 48.4896,-19.983 67.1566,-24.4979 18.667,-4.49466 40.0065,-6.82297 63.6743,-6.82297 50.8179,0 90.6625,16.6626 119.493,49.9879 28.8306,33.5075 43.1649,85.8439 43.1649,157.009z"
     id="path121" /></glyph>
   <glyph
   unicode="f"
   horiz-adv-x="351"
   id="glyph123"><path
     d="M383.665 670.999l-4.83884 0c-10.1636,2.99644 -23.3236,5.99287 -39.5003,9.00956 -16.3184,3.15841 -30.6527,4.65662 -43.0029,4.65662 -39.3181,0 -67.9867,-8.66537 -85.6616,-26.1581 -17.6547,-17.513 -26.6642,-49.016 -26.6642,-94.6712l0 -18.505 165.513 0 0 -77.1582 -162.516 0 0 -468.173 -91.8367 0 0 468.173 -61.9938 0 0 77.1582 61.9938 0 0 17.9989c0,64.8283 16.1767,114.674 48.3479,149.336 32.1712,34.6615 78.6565,51.9922 139.658,51.9922 20.5094,0 38.8322,-0.992063 55.3328,-2.99644 16.5006,-1.82216 31.5031,-4.17072 45.1693,-6.82297l0 -83.8395z"
     id="path125" /></glyph>
   <glyph
   unicode="h"
   horiz-adv-x="632"
   id="glyph127"><path
     d="M546.323 0l-91.8165 0 0 310.496c0,25.166 -1.49822,48.6718 -4.33269,70.6795 -3.01668,21.9874 -8.34143,39.1561 -16.1767,51.4861 -8.15922,13.6662 -19.821,23.8298 -35.1676,30.511 -15.3264,6.661 -35.1676,10.0016 -59.5036,10.0016 -24.9838,0 -51.3241,-6.17509 -78.6565,-18.505 -27.3324,-12.5121 -53.5107,-28.1625 -78.4945,-47.4976l0 -407.171 -91.8367 0 0 759.84 91.8367 0 0 -275.004c28.6484,23.8298 58.3293,42.3348 88.8201,55.6568 30.673,13.3422 62.0141,20.0032 94.165,20.0032 58.9974,0 103.843,-17.6547 134.84,-53.1665 30.835,-35.4916 46.3233,-86.6537 46.3233,-153.324l0 -354.005z"
     id="path129" /></glyph>
   <glyph
   unicode="m"
   horiz-adv-x="972"
   id="glyph131"><path
     d="M886.176 0l-91.8367 0 0 310.496c0,23.5058 -1.01231,46.1613 -3.17865,68.007 -2.16634,21.6634 -6.661,39.1561 -13.484,52.1542 -7.34937,14.0104 -18.1811,24.6801 -32.1712,31.8473 -14.0104,7.16715 -34.1756,10.6697 -60.4956,10.6697 -25.6722,0 -51.5063,-6.49903 -77.1785,-19.3351 -25.6722,-12.8361 -51.3241,-29.1748 -76.9963,-48.9958 0.830094,-7.51134 1.66019,-16.1767 2.32831,-26.1783 0.668124,-9.83965 1.01231,-19.8413 1.01231,-29.4987l0 -349.166 -91.8367 0 0 310.496c0,24.174 -1.01231,47.0117 -3.17865,68.6751 -2.16634,21.6634 -6.661,38.9942 -13.484,51.9922 -7.34937,14.0104 -18.1811,24.4979 -32.1712,31.5031 -14.0104,7.00518 -34.1756,10.5078 -60.4956,10.5078 -25.004,0 -50.1701,-6.17509 -75.5183,-18.505 -25.166,-12.5121 -50.332,-28.1625 -75.3158,-47.4976l0 -407.171 -91.8367 0 0 545.331 91.8367 0 0 -60.4956c28.6484,23.6678 57.155,42.3348 85.6616,55.6568 28.4864,13.3422 58.8354,20.0032 90.9864,20.0032 37.172,0 68.6751,-7.83528 94.5092,-23.4856 25.8341,-15.5086 45.1693,-37.172 57.8434,-64.8486 37.1518,31.1791 70.9832,53.6727 101.656,67.5008 30.511,13.8282 63.1681,20.8333 97.9916,20.8333 60.0097,0 104.167,-18.1608 132.673,-54.5028 28.5066,-36.1597 42.679,-86.9979 42.679,-151.988l0 -354.005z"
     id="path133" /></glyph>
   <glyph
   unicode="g"
   horiz-adv-x="622"
   id="glyph135"><path
     d="M532.657 61.9938c0,-92.4846 -20.9953,-160.33 -62.9859,-203.494 -42.0109,-43.3269 -106.677,-64.9903 -193.837,-64.9903 -28.9925,0 -57.1753,1.98413 -84.6696,6.15484 -27.4943,4.00875 -54.6647,9.83965 -81.329,17.3307l0 93.6791 4.83884 0c14.9822,-5.8309 38.8322,-13.1803 71.3273,-21.6837 32.4951,-8.66537 65.1725,-12.9981 97.6676,-12.9981 31.1589,0 57.155,3.66456 77.6644,11.1759 20.5094,7.49109 36.3419,17.9989 47.8418,31.3411 11.3176,12.6539 19.4971,28.0005 24.3157,45.8171 4.83884,17.9989 7.34937,38.0021 7.34937,60.1717l0 49.6639c-27.6765,-21.9874 -54.1788,-38.488 -79.3448,-49.5019 -25.166,-10.8317 -57.3372,-16.3184 -96.4934,-16.3184 -65.0105,0 -116.679,23.4856 -155.005,70.4972 -38.1641,46.9914 -57.3372,113.318 -57.3372,199 0,46.8294 6.68124,87.3218 19.8413,121.335 13.16,33.9934 31.1589,63.3301 53.8346,88.1519 21.1573,22.9997 46.9914,40.9985 77.1582,53.8346 30.3288,12.8361 60.4956,19.3351 90.3385,19.3351 31.665,0 58.0053,-3.15841 79.3246,-9.49546 21.3395,-6.33706 43.833,-15.9945 67.683,-28.9925l5.8309 23.3236 85.9856 0 0 -483.337zm-91.8165 88.0102l0 297.153c-24.4979,11.1759 -47.1736,19.0112 -68.1689,23.85 -20.9953,4.65662 -41.8286,6.98494 -62.662,6.98494 -50.5143,0 -90.1765,-16.9866 -119.169,-50.8179 -29.0128,-33.8314 -43.5091,-83.0094 -43.5091,-147.332 0,-61.184 10.6697,-107.507 32.1712,-139.172 21.5015,-31.5031 57.155,-47.3356 107.001,-47.3356 26.6642,0 53.4904,5.16278 80.3369,15.3264 26.8262,10.3458 51.4861,24.012 73.9998,41.3427z"
     id="path137" /></glyph>
   <glyph
   unicode="c"
   horiz-adv-x="520"
   id="glyph139"><path
     d="M493.663 34.1756c-30.673,-14.6785 -59.6655,-26.0164 -87.1599,-34.1756 -27.4943,-8.15922 -56.6691,-12.168 -87.666,-12.168 -39.3384,0 -75.4981,5.8309 -108.337,17.3307 -32.8393,11.4998 -61.0018,29.0128 -84.5076,52.4984 -23.6678,23.5058 -42.1526,53.0045 -55.1506,88.8403 -12.9981,35.8358 -19.5173,77.6644 -19.5173,125.506 0,89.1642 24.5181,159.155 73.5139,209.994 48.9958,50.8382 113.662,76.1662 193.999,76.1662 31.3209,0 61.9938,-4.33269 91.9987,-13.16 30.1668,-8.84759 57.8231,-19.5173 82.8272,-32.3332l0 -102 -4.83884 0c-28.0005,21.8254 -56.993,38.488 -86.6537,50.332 -29.8429,11.6618 -58.8354,17.4927 -87.1801,17.4927 -52.1542,0 -93.1527,-17.4927 -123.32,-52.4984 -30.1668,-35.0057 -45.1693,-86.3298 -45.1693,-153.993 0,-65.6787 14.6582,-116.173 44.1569,-151.502 29.4987,-35.3296 70.8414,-53.0045 124.332,-53.0045 18.505,0 37.334,2.49028 56.6691,7.32912 19.1731,4.83884 36.3419,11.1759 51.6683,19.0112 13.3422,6.82297 25.8341,14.1521 37.6782,21.6634 11.6618,7.65306 20.9953,14.3343 27.8183,19.821l4.83884 0 0 -101.15z"
     id="path141" /></glyph>
   <glyph
   unicode="n"
   horiz-adv-x="632"
   id="glyph143"><path
     d="M546.323 0l-91.8165 0 0 310.496c0,25.166 -1.49822,48.6718 -4.33269,70.6795 -3.01668,21.9874 -8.34143,39.1561 -16.1767,51.4861 -8.15922,13.6662 -19.821,23.8298 -35.1676,30.511 -15.3264,6.661 -35.1676,10.0016 -59.5036,10.0016 -24.9838,0 -51.3241,-6.17509 -78.6565,-18.505 -27.3324,-12.5121 -53.5107,-28.1625 -78.4945,-47.4976l0 -407.171 -91.8367 0 0 545.331 91.8367 0 0 -60.4956c28.6484,23.8298 58.3293,42.3348 88.8201,55.6568 30.673,13.3422 62.0141,20.0032 94.165,20.0032 58.9974,0 103.843,-17.6547 134.84,-53.1665 30.835,-35.4916 46.3233,-86.6537 46.3233,-153.324l0 -354.005z"
     id="path145" /></glyph>
   <glyph
   unicode="o"
   horiz-adv-x="607"
   id="glyph147"><path
     d="M555.171 272.494c0,-89.0023 -22.8377,-159.155 -68.3309,-210.5 -45.5134,-51.4861 -106.677,-77.1582 -183.167,-77.1582 -76.9963,0 -138.342,25.6722 -183.673,77.1582 -45.4932,51.3443 -68.1689,121.497 -68.1689,210.5 0,88.8403 22.6757,159.014 68.1689,210.682 45.3312,51.4861 106.677,77.3202 183.673,77.3202 76.4901,0 137.654,-25.8341 183.167,-77.3202 45.4932,-51.6683 68.3309,-121.842 68.3309,-210.682zm-94.6712 0c0,70.4972 -13.8282,123.016 -41.5047,157.333 -27.6563,34.3375 -66.1646,51.5063 -115.322,51.5063 -49.6639,0 -88.3341,-17.1688 -115.849,-51.5063 -27.4943,-34.3173 -41.3225,-86.8359 -41.3225,-157.333 0,-68.3309 13.8282,-120.161 41.5047,-155.491 27.6563,-35.3296 66.3265,-53.0045 115.667,-53.0045 48.8338,0 87.1599,17.4927 114.998,52.4984 27.8385,35.0057 41.8286,86.9979 41.8286,155.997z"
     id="path149" /></glyph>
   <glyph
   unicode="i"
   horiz-adv-x="274"
   id="glyph151"><path
     d="M188.998 636.824l-103.499 0 0 95.1774 103.499 0 0 -95.1774zm-5.8309 -636.824l-91.8367 0 0 545.331 91.8367 0 0 -545.331z"
     id="path153" /></glyph>
   <glyph
   unicode="d"
   horiz-adv-x="622"
   id="glyph155"><path
     d="M532.657 0l-91.8165 0 0 57.1753c-26.3403,-22.8377 -53.8346,-40.6746 -82.5032,-53.3487 -28.6686,-12.6539 -59.6655,-18.9909 -93.335,-18.9909 -65.0105,0 -116.679,25.004 -155.005,75.1741 -38.1641,50.1498 -57.3372,119.655 -57.3372,208.495 0,46.1613 6.68124,87.504 19.8413,123.502 13.16,36.1597 30.9969,66.9947 53.3285,92.3226 22.1696,24.6801 48.0037,43.671 77.5024,56.6691 29.4987,12.9981 60.0097,19.4971 91.4925,19.4971 28.6686,0 54.0168,-2.99644 76.1662,-8.98931 22.1696,-6.01312 45.5134,-15.3466 69.8494,-28.1827l0 236.516 91.8165 0 0 -759.84zm-91.8165 134.172l0 312.986c-24.6801,11.1759 -46.8497,18.8492 -66.3468,22.9997 -19.6591,4.17072 -40.9985,6.33706 -63.9982,6.33706 -51.4861,0 -91.4925,-17.8369 -120.161,-53.6524 -28.6686,-35.8358 -43.0029,-86.674 -43.0029,-152.332 0,-64.8486 10.9937,-114.168 33.1633,-147.838 22.1696,-33.6694 57.6814,-50.5143 106.515,-50.5143 25.9961,0 52.4984,5.85115 79.1626,17.351 26.6642,11.4998 51.4861,26.482 74.668,44.6631z"
     id="path157" /></glyph>
   <glyph
   unicode="e"
   horiz-adv-x="595"
   id="glyph159"><path
     d="M546.829 263.16l-401.664 0c0,-33.4872 5.00081,-62.8239 15.1644,-87.666 10.0016,-24.8218 23.8298,-45.3312 41.5047,-61.3257 16.8246,-15.5086 36.9898,-27.3324 60.1717,-35.1676 23.3236,-7.83528 48.9958,-11.6618 76.9963,-11.6618 36.9898,0 74.3238,7.32912 112.002,22.1696 37.496,14.8202 64.3222,29.4987 80.3369,43.833l4.81859 0 0 -100.178c-30.9969,-12.9981 -62.5,-23.8298 -94.651,-32.6571 -32.3332,-8.84759 -66.1848,-13.1803 -101.676,-13.1803 -90.5005,0 -160.998,24.4979 -211.836,73.5139 -50.8382,48.9958 -76.1662,118.501 -76.1662,208.657 0,89.1642 24.3359,160.006 73.0078,212.342 48.6718,52.4984 112.67,78.6565 191.995,78.6565 73.6759,0 130.325,-21.5015 170.169,-64.5044 39.8243,-42.8207 59.8275,-103.984 59.8275,-182.985l0 -49.8461zm-89.3262 70.3353c-0.344185,48.1657 -12.5121,85.4997 -36.3419,111.84 -23.9917,26.3403 -60.3337,39.5003 -109.167,39.5003 -48.9958,0 -88.1519,-14.4963 -117.327,-43.5091 -29.1748,-28.8306 -45.6754,-64.8283 -49.5019,-107.831l312.338 0z"
     id="path161" /></glyph>
   <glyph
   unicode="a"
   horiz-adv-x="600"
   id="glyph163"><path
     d="M514.172 0l-91.3306 0 0 58.0053c-8.17946,-5.50696 -19.1731,-13.1803 -33.0013,-23.1819 -13.8484,-9.8194 -27.1704,-17.8167 -40.1684,-23.6476 -15.3466,-7.51134 -33.0013,-13.6662 -52.8426,-18.8492 -19.821,-5.00081 -43.0029,-7.49109 -69.8291,-7.49109 -48.9958,0 -90.6625,16.3387 -124.838,48.8338 -34.1553,32.4951 -51.3241,73.9998 -51.3241,124.494 0,41.3427 8.82734,74.8299 26.6642,100.34 17.6547,25.49 43.0029,45.6552 75.822,60.3337 33.1835,14.6582 73.1697,24.4979 119.675,29.8226 46.5055,5.18303 96.4934,9.00956 149.842,11.6821l0 14.1521c0,20.8333 -3.68481,38.1641 -11.0139,51.8303 -7.32912,13.6662 -17.8369,24.5181 -31.5031,32.3332 -12.9981,7.51134 -28.6484,12.5121 -46.8294,15.1846 -18.1608,2.49028 -37.334,3.82653 -57.155,3.82653 -24.012,0 -50.8382,-3.15841 -80.4989,-9.49546 -29.6809,-6.33706 -60.1717,-15.6706 -91.8367,-27.6765l-4.83884 0 0 93.335c17.8369,4.83884 43.833,10.1636 77.6644,15.9945 33.8314,5.8309 67.1769,8.84759 99.996,8.84759 38.5083,0 71.8335,-3.17865 100.34,-9.51571 28.5066,-6.31681 53.1665,-17.1485 73.9998,-32.4951 20.5094,-15.0024 36.1597,-34.3375 46.8294,-58.1673 10.8317,-23.6678 16.1767,-53.1665 16.1767,-88.3341l0 -370.161zm-91.3306 134.333l0 151.826c-28.0005,-1.66019 -61.0018,-3.9885 -98.8419,-7.32912 -38.0021,-3.15841 -68.007,-7.99725 -90.1765,-14.1723 -26.3201,-7.49109 -47.6595,-19.1529 -63.9982,-34.8235 -16.1565,-15.8325 -24.3157,-37.6782 -24.3157,-65.3345 0,-31.1589 9.49546,-54.6647 28.3244,-70.4972 18.829,-15.8325 47.6595,-23.6678 86.3298,-23.6678 32.3332,0 61.8319,6.33706 88.4961,18.829 26.6642,12.5121 51.3443,27.4943 74.1821,45.1693z"
     id="path165" /></glyph>
   <glyph
   unicode="l"
   horiz-adv-x="274"
   id="glyph167"><path
     d="M183.167 0l-91.8367 0 0 759.84 91.8367 0 0 -759.84z"
     id="path169" /></glyph>
   <glyph
   unicode="q"
   horiz-adv-x="622"
   id="glyph171"><path
     d="M532.657 -201.166l-91.8165 0 0 262.674c-28.3447,-24.3359 -56.5071,-42.517 -84.5076,-54.3408 -28.0005,-11.8238 -58.1673,-17.8369 -90.8244,-17.8369 -64.6663,0 -116.335,25.004 -155.005,75.0121 -38.5083,49.8259 -57.8434,118.825 -57.8434,206.653 0,46.8294 6.84321,88.3341 20.3474,124.332 13.484,35.8358 31.3209,66.0026 53.3285,90.5005 21.5015,23.6678 46.8294,42.1728 75.66,55.1709 29.0128,12.9981 59.6655,19.4971 91.8367,19.4971 29.3367,0 55.3328,-3.32038 77.8264,-9.8194 22.6757,-6.51927 45.6754,-16.0147 69.1812,-28.6686l5.8309 23.3236 85.9856 0 0 -746.497zm-91.8165 339.832l0 308.491c-25.3482,11.4998 -47.8418,19.5173 -67.3388,24.012 -19.6591,4.49466 -40.8366,6.82297 -63.4921,6.82297 -53.1665,0 -93.5172,-17.9989 -121.173,-53.9966 -27.6765,-35.9977 -41.5047,-85.4997 -41.5047,-148.668 0,-63.654 11.1759,-112.832 33.5075,-147.17 22.3316,-34.3173 57.3372,-51.4861 105.159,-51.4861 26.6642,0 53.5107,5.8309 80.1749,17.3307 26.6642,11.4998 51.4861,26.5023 74.668,44.6631z"
     id="path173" /></glyph>
   <glyph
   unicode="u"
   horiz-adv-x="632"
   id="glyph175"><path
     d="M542.497 0l-91.8367 0 0 60.4956c-30.835,-24.3359 -60.4956,-43.1649 -88.8201,-56.1629 -28.3447,-12.9981 -59.5036,-19.4971 -93.6791,-19.4971 -57.3372,0 -102,17.4927 -133.827,52.4984 -31.827,35.0057 -47.8418,86.3298 -47.8418,153.993l0 354.005 91.8367 0 0 -310.496c0,-27.6765 1.33625,-51.3443 3.84678,-71.1654 2.65225,-19.6793 8.15922,-36.5039 16.6626,-50.494 8.82734,-14.3343 20.1652,-24.6801 34.1553,-31.1791 14.0104,-6.49903 34.3375,-9.83965 61.0018,-9.83965 23.8298,0 49.6639,6.17509 77.8466,18.505 28.1625,12.5121 54.4825,28.1625 78.8184,47.4976l0 407.171 91.8367 0 0 -545.331z"
     id="path177" /></glyph>
   <glyph
   unicode="v"
   horiz-adv-x="591"
   id="glyph179"><path
     d="M561.994 545.331l-220.663 -545.331 -92.3226 0 -219.165 545.331 99.6518 0 168.833 -433.997 167.497 433.997 96.1694 0z"
     id="path181" /></glyph>
   <glyph
   unicode="t"
   horiz-adv-x="393"
   id="glyph183"><path
     d="M373.502 5.00081c-17.1688,-4.67687 -35.9977,-8.34143 -56.3452,-11.3379 -20.3272,-2.83447 -38.488,-4.33269 -54.4825,-4.33269 -55.677,0 -98.0118,15.0024 -126.842,44.8453 -28.9925,29.9846 -43.4888,77.9883 -43.4888,143.991l0 290.006 -62.0141 0 0 77.1582 62.0141 0 0 156.665 91.8165 0 0 -156.665 189.342 0 0 -77.1582 -189.342 0 0 -248.502c0,-28.6686 0.668124,-51.0002 2.00437,-67.1769 1.33625,-15.9945 5.8309,-31.1589 13.6662,-44.987 7.16715,-13.1803 17.0068,-22.6757 29.4987,-28.6686 12.5121,-6.01312 31.665,-9.00956 57.3372,-9.00956 15.0024,0 30.4908,2.16634 46.8294,6.49903 16.3387,4.5149 28.0005,8.17946 35.1676,11.0139l4.83884 0 0 -82.3413z"
     id="path185" /></glyph>
   <glyph
   unicode="s"
   horiz-adv-x="520"
   id="glyph187"><path
     d="M479.997 157.333c0,-49.8259 -20.6714,-90.6625 -61.8319,-122.672 -41.1605,-31.827 -97.3235,-47.8215 -168.671,-47.8215 -40.3304,0 -77.3202,4.81859 -111.152,14.3343 -33.6694,9.65743 -61.8521,20.1652 -84.6696,31.665l0 102.992 4.81859 0c29.0128,-21.8254 61.184,-39.1561 96.6756,-51.9922 35.4916,-12.8361 69.5052,-19.3351 102.162,-19.3351 40.3304,0 71.8335,6.49903 94.6712,19.4971 22.8377,12.9981 34.1756,33.5075 34.1756,61.5079 0,21.4812 -6.17509,37.8199 -18.505,48.8338 -12.5121,11.1557 -36.1799,20.4891 -71.3476,28.3244 -12.9981,2.99644 -29.9846,6.33706 -50.9799,10.3256 -21.0155,3.84678 -40.1684,8.17946 -57.3372,12.6741 -47.8418,12.6741 -81.8351,31.3411 -101.838,55.839 -20.0032,24.6599 -30.0049,54.8267 -30.0049,90.6625 0,22.4935 4.67687,43.671 13.8282,63.4921 9.3335,19.8413 23.5058,37.496 42.3348,53.1665 18.1811,15.3466 41.3427,27.5146 69.5052,36.3419 28.1625,8.98931 59.6655,13.5042 94.5092,13.5042 32.6571,0 65.4964,-4.00875 98.9836,-12.006 33.3455,-7.99725 61.0018,-17.6749 83.1714,-28.9925l0 -98.1738 -4.81859 0c-23.5058,17.1688 -52.0125,31.827 -85.5199,43.671 -33.4872,11.8238 -66.3265,17.8369 -98.4977,17.8369 -33.6492,0 -61.8319,-6.49903 -84.9935,-19.3351 -23.1616,-12.8361 -34.6615,-32.0092 -34.6615,-57.3372 0,-22.4935 7.00518,-39.3384 20.9953,-50.8382 13.6662,-11.3379 35.8358,-20.6714 66.3265,-27.8385 17.0068,-3.82653 35.9977,-7.65306 57.0133,-11.6618 20.8333,-3.82653 38.326,-7.49109 52.3364,-10.6697 42.6587,-9.8194 75.4981,-26.6642 98.6597,-50.332 23.1616,-24.1537 34.6615,-56.001 34.6615,-95.6633z"
     id="path189" /></glyph>
   <glyph
   unicode="p"
   horiz-adv-x="622"
   id="glyph191"><path
     d="M570.335 279.337c0,-44.3392 -6.33706,-84.6696 -19.0112,-121.335 -12.6539,-36.6659 -30.6527,-67.6628 -53.6524,-93.011 -21.5015,-23.9917 -46.8294,-42.6587 -76.0042,-55.8188 -29.1748,-13.1803 -60.0097,-19.8413 -92.5049,-19.8413 -28.3244,0 -53.9966,3.17865 -76.9963,9.3335 -22.8377,6.17509 -46.1613,15.6706 -69.9911,28.6686l0 -228.499 -91.8367 0 0 746.497 91.8367 0 0 -56.993c24.3157,20.4891 51.8303,37.6579 82.321,51.4861 30.3288,13.8484 62.8442,20.6714 97.3437,20.6714 65.8204,0 117.003,-24.8218 153.486,-74.4857 36.6659,-49.5019 55.0089,-118.501 55.0089,-206.673zm-94.6712 -2.51053c0,65.8406 -11.1557,114.998 -33.6694,147.514 -22.4935,32.4951 -56.993,48.8338 -103.499,48.8338 -26.5023,0 -53.0045,-5.66893 -79.6688,-17.1688 -26.6642,-11.3379 -52.1542,-26.3403 -76.6521,-44.8453l0 -308.997c25.9961,-11.8238 48.4896,-19.821 67.1566,-23.9917 18.667,-4.17072 40.0065,-6.33706 63.6743,-6.33706 51.1621,0 90.9864,17.3307 119.655,51.8303 28.6686,34.4995 43.0029,85.4997 43.0029,153.162z"
     id="path193" /></glyph>
   <glyph
   unicode="z"
   horiz-adv-x="525"
   id="glyph195"><path
     d="M485.828 0l-440.496 0 0 67.8247 317.845 400.834 -311.002 0 0 76.6723 425.332 0 0 -65.4964 -319.343 -402.17 327.664 0 0 -77.6644z"
     id="path197" /></glyph>
   <glyph
   unicode="r"
   horiz-adv-x="426"
   id="glyph199"><path
     d="M430.657 445.173l-4.81859 0c-13.6662,3.32038 -27.0084,5.66893 -39.8445,7.16715 -12.8361,1.49822 -28.0005,2.16634 -45.6552,2.16634 -28.3447,0 -55.677,-6.33706 -81.9971,-18.8492 -26.3403,-12.4919 -51.8505,-28.6484 -76.1662,-48.4896l0 -387.168 -91.8367 0 0 545.331 91.8367 0 0 -80.4989c36.4836,29.1748 68.6548,50.0081 96.4934,62.1761 27.8385,12.168 56.1629,18.3228 85.1555,18.3228 15.8325,0 27.5146,-0.323939 34.6817,-1.17428 7.16715,-0.830094 17.8369,-2.32831 32.151,-4.65662l0 -94.327z"
     id="path201" /></glyph>
   <glyph
   unicode="°"
   horiz-adv-x="541"
   id="glyph203"><path
     d="M466.837 544.825c0,-54.6647 -18.829,-100.988 -56.6691,-138.666 -37.6579,-37.8199 -84.1634,-56.6489 -139.172,-56.6489 -54.9887,0 -101.494,18.829 -139.152,56.3249 -37.8401,37.6579 -56.6691,84.0015 -56.6691,138.99 0,54.685 18.829,101.008 56.6691,138.666 37.6579,37.8401 84.1634,56.6691 139.152,56.6691 55.3328,0 101.838,-18.829 139.496,-56.6691 37.5162,-37.6579 56.3452,-83.9812 56.3452,-138.666zm-80.4989 0c0,33.1835 -10.8317,61.184 -32.6774,83.6775 -21.8254,22.6555 -49.5019,33.9934 -82.6652,33.9934 -33.1633,0 -60.8196,-11.3379 -82.6652,-33.9934 -21.8254,-22.4935 -32.6571,-50.494 -32.6571,-83.6775 0,-33.8314 11.1557,-61.9938 33.4872,-84.1634 22.3316,-22.3316 49.5019,-33.4872 81.8351,-33.4872 33.1633,0 60.8398,11.3176 82.6652,34.1553 21.8456,22.8377 32.6774,50.6762 32.6774,83.4953z"
     id="path205" /></glyph>
  </font>
  <font
   id="FontID2"
   font-variant="normal"
   font-style="normal"
   font-weight="400"
   horiz-origin-x="0"
   horiz-origin-y="0"
   horiz-adv-x="90"
   vert-origin-x="45"
   vert-origin-y="90"
   vert-adv-y="90"
   style="font-style:normal;font-variant:normal;font-weight:400">
	<font-face
   font-family="Aldine721 BT"
   id="font-face208">
	</font-face>
   <missing-glyph
   id="missing-glyph210"><path
     d="M0 0z"
     id="path212" /></missing-glyph>
   <glyph
   unicode="."
   horiz-adv-x="248"
   id="glyph214"><path
     d="M60.003 64.8263c0,18.0191 6.15805,33.1867 18.5045,45.5028 12.4981,12.3464 27.6657,18.5045 45.5028,18.5045 17.8371,0 33.0047,-6.15805 45.5028,-18.5045 12.3161,-12.3161 18.4741,-27.4837 18.4741,-45.5028 0,-17.8371 -6.30972,-33.1564 -18.8078,-45.8365 -12.4981,-12.6498 -27.514,-18.9898 -45.1691,-18.9898 -17.8371,0 -33.0047,6.34006 -45.5028,18.9898 -12.3464,12.6801 -18.5045,27.9994 -18.5045,45.8365z"
     id="path216" /></glyph>
   <glyph
   unicode="-"
   horiz-adv-x="333"
   id="glyph218"><path
     d="M45.8434 199.163l0 82.9959 241.161 0 0 -82.9959 -241.161 0z"
     id="path220" /></glyph>
   <glyph
   unicode=" "
   horiz-adv-x="248"
   id="glyph222" />
   <glyph
   unicode="0"
   horiz-adv-x="498"
   id="glyph224"><path
     d="M137.176 347.156c0,-102.169 9.31291,-178.978 27.9994,-230.669 18.8382,-51.4788 46.6555,-77.3244 83.8162,-77.3244 36.8269,0 64.523,25.8456 82.9971,77.6581 18.5045,51.6912 27.8477,128.5 27.8477,230.335 0,102.503 -9.34324,179.857 -27.8477,231.852 -18.4741,52.1462 -46.1702,78.1738 -82.9971,78.1738 -37.1606,0 -64.978,-26.0276 -83.8162,-77.8401 -18.6865,-51.9945 -27.9994,-129.349 -27.9994,-232.186zm111.816 -358.319c-61.8231,0 -113.484,33.6721 -154.831,100.986 -41.3165,67.4958 -62.0052,153.162 -62.0052,257.334 0,50.1744 5.52101,96.83 16.3507,140.179 10.9813,43.3187 27.15,81.5107 48.6577,114.667 19.5055,31.3363 42.6816,55.6651 69.498,72.9865 26.8467,17.5034 54.3304,26.1793 82.3297,26.1793 27.9994,0 55.3314,-8.67587 82.3297,-26.1793 26.8467,-17.3214 50.0228,-41.6502 69.498,-72.9865 20.8403,-32.489 36.6753,-70.681 47.6869,-114.515 10.8297,-43.6524 16.3203,-90.8236 16.3203,-141.332 0,-104.474 -20.5066,-190.141 -61.4895,-257 -41.0132,-66.8285 -92.492,-100.319 -154.346,-100.319z"
     id="path226" /></glyph>
   <glyph
   unicode="2"
   horiz-adv-x="498"
   id="glyph228"><path
     d="M39.0111 0l0 46.8376c102.503,113.332 177.491,206.825 224.814,280.51 47.3533,73.6539 71.0147,133.475 71.0147,179.493 0,34.4911 -11.3454,63.3399 -34.1878,86.8194 -22.8121,23.5098 -50.8115,35.1585 -83.9982,35.1585 -23.3278,0 -46.1398,-5.82436 -68.3149,-17.4731 -22.175,-11.8307 -43.349,-29.1825 -63.4916,-52.3586l-24.8445 25.8456c30.3352,40.1638 61.3378,69.498 93.3414,88.1541 31.8216,18.8382 66.6464,28.1814 104.323,28.1814 51.5092,0 93.6751,-15.0159 126.831,-45.1691 33.0047,-30.1532 49.5071,-68.4969 49.5071,-115.001 0,-45.5028 -20.992,-100.834 -63.0062,-165.994 -42.0143,-65.16 -120.006,-160.17 -233.824,-285.181l189.838 0c29.6678,0 50.1441,3.85257 61.4895,11.497 11.497,7.67481 23.5098,21.8413 36.1596,42.6816l19.9909 -5.82436c4.33793,-1.33475 7.67481,-2.85151 10.3443,-4.67162 2.48749,-1.85045 3.82224,-3.33687 3.82224,-4.67162 -1.97179,-4.48961 -4.8233,-11.1634 -8.82754,-19.9909l-46.3219 -108.843 -364.659 0z"
     id="path230" /></glyph>
   <glyph
   unicode="1"
   horiz-adv-x="498"
   id="glyph232"><path
     d="M108.994 0l0 43.986 14.1665 0c30.5172,0 51.6609,5.85469 63.4916,17.3517 11.6791,11.497 17.5034,32.489 17.5034,62.6725l0 411.163c0,35.1585 -6.15805,57.8189 -18.3225,67.8295 -12.1644,10.1623 -37.828,15.5013 -76.8391,16.1687l0 33.6721 187.017 48.324 0 -575.155c0,-29.6678 6.15805,-50.6901 18.4741,-63.1882 12.5284,-12.4981 33.3384,-18.8382 62.6725,-18.8382l12.1644 0 0 -43.986 -280.328 0z"
     id="path234" /></glyph>
   <glyph
   unicode="M"
   horiz-adv-x="939"
   id="glyph236"><path
     d="M24.8445 0l0.485363 43.986c29.3341,2.33581 51.9945,15.0159 68.1632,38.01 16.017,23.1761 28.8488,62.4905 38.3437,118.156l61.0041 353.011c0.333687,1.33475 0.667374,3.1852 1.00106,5.49067 1.82011,14.6822 2.82117,25.0265 2.82117,31.1846 0,24.8142 -6.00637,43.5007 -18.3225,56.4841 -12.1644,12.8318 -30.3352,19.6875 -54.3304,20.6886l0 40.9829 186.986 0c0,-22.4784 2.85151,-46.1702 8.49386,-70.9844 5.67268,-24.9962 17.1697,-60.3367 34.5215,-106.173l120.977 -325.679 131.018 348.005c10.6477,28.3331 18.3225,52.6619 23.1458,73.0168 4.67162,20.3246 7.00743,39.3144 7.00743,56.9998 0,2.82117 -0.151676,6.30972 -0.485363,10.1623 -0.333687,4.00425 -0.849386,8.82754 -1.33475,14.6519l196.663 0 -0.515698 -40.9829c-25.6636,-0.667374 -44.6534,-6.34006 -56.9998,-17.1697 -12.4981,-10.678 -18.6562,-26.9983 -18.6562,-48.688 0,-9.16123 0.667374,-19.3235 1.66844,-30.6386 1.15274,-11.1937 2.82117,-22.6907 4.67162,-34.3395l57.6672 -385.166c5.82436,-39.4964 15.5013,-66.3431 28.8184,-80.8433 13.3475,-14.5002 34.0058,-23.1761 62.0052,-26.1793l0.515698 -43.986 -292.007 0 0 43.986c32.8227,4.18626 55.8168,12.3464 68.9823,24.3592 13.3475,12.1644 19.8392,31.0026 19.8392,56.6662 0,4.97497 -0.333687,11.1634 -1.00106,18.6562 -0.667374,7.4928 -1.82011,18.5045 -3.82224,33.1564l-51.3272 354.012 -163.021 -431.67c-6.30972,-15.9867 -11.315,-32.1553 -15.1676,-48.8397 -3.97391,-16.654 -6.82542,-33.3384 -8.82754,-50.3261l-51.8125 0c-3.85257,25.3299 -9.00956,50.9935 -15.5013,76.6571 -6.52207,25.6636 -13.6812,49.5071 -21.5077,71.3484l-139.178 377.825 -41.9839 -235.826c-5.18732,-28.1814 -9.16123,-55.3314 -11.8307,-80.995 -2.51782,-25.6636 -3.85257,-48.0206 -3.85257,-66.8285 0,-33.5204 5.52101,-56.9998 16.3507,-70.3473 10.9813,-13.3475 31.0026,-22.6604 60.3367,-27.8477l0 -43.986 -230.002 0z"
     id="path238" /></glyph>
   <glyph
   unicode="B"
   horiz-adv-x="663"
   id="glyph240"><path
     d="M37.1752 0l0 44.0005c38.654,4.50471 64.6585,13.6734 77.8314,27.324 13.1501,13.6734 19.8162,41.4979 19.8162,83.3371l0 403.331c0,42.1805 -6.66606,70.005 -19.8162,83.6784 -13.1729,13.6734 -39.1773,22.8193 -77.8314,27.324l0 38.9953 197.661 0c74.9875,0 127.997,-1.82008 159.326,-5.66501 31.1689,-3.66292 58.5157,-9.82846 81.9948,-18.3146 35.5144,-13.0136 62.5199,-31.6695 81.0165,-56.0131 18.4966,-24.5029 27.8245,-53.4877 27.8245,-87 0,-41.3387 -13.6734,-76.1705 -41.1567,-104.496 -27.506,-28.3251 -67.8437,-49.165 -120.831,-62.4972 63.1569,-12.0126 111.162,-33.3303 143.991,-63.9987 32.8298,-30.5092 49.3243,-69.6637 49.3243,-117.168 0,-27.0055 -5.32375,-52.3274 -15.8347,-75.8293 -10.6475,-23.6839 -25.9817,-44.5011 -46.1619,-62.8384 -22.1595,-19.8389 -51.6677,-33.8308 -88.6609,-41.9985 -36.9932,-8.16763 -101.834,-12.1718 -194.658,-12.1718l-233.835 0zm207.99 345.657l0 -203.667c0,-35.1504 7.32584,-59.9945 22.0003,-74.487 14.6744,-14.4924 39.8371,-21.659 75.67,-21.659 43.6593,0 79.4922,13.1501 107.499,39.4958 28.0066,26.505 41.9985,60.3358 41.9985,101.652 0,50.5073 -18.3374,89.8439 -55.1713,118.01 -36.834,28.1658 -88.5016,42.1577 -154.821,42.1577 -10.1697,0 -17.6776,0 -22.8421,-0.159257 -5.00523,-0.159257 -9.82846,-0.659781 -14.3332,-1.34231zm0 49.347c11.33,-2.66187 21.841,-4.50471 31.3282,-5.84702 9.35068,-1.31956 18.3374,-1.97934 26.8462,-1.97934 48.8238,0 88.8201,13.6506 120.171,40.9974 31.1462,27.324 46.8217,62.3151 46.8217,104.996 0,40.3376 -14.1739,72.1664 -42.499,95.6682 -28.3251,23.5018 -66.8426,35.1504 -115.826,35.1504 -28.1658,0 -46.5032,-2.32061 -54.6708,-6.82532 -8.16763,-4.50471 -12.1718,-16.3353 -12.1718,-35.1731l0 -25.8225 0 -201.165z"
     id="path242" /></glyph>
   <glyph
   unicode="G"
   horiz-adv-x="750"
   id="glyph244"><path
     d="M462.006 356.009l275.834 0 0 -37.1752c-30.3499,-4.50471 -50.8486,-14.9929 -61.4961,-31.5102 -10.8523,-16.4945 -16.176,-52.1454 -16.176,-107.157l0 -163.99c-47.5042,-11.3528 -91.0042,-19.9982 -130.659,-25.6859 -39.5186,-5.66501 -74.669,-8.48614 -105.679,-8.48614 -36.4927,0 -71.0061,4.00419 -103.836,12.1718 -32.6705,8.16763 -63.6575,20.3167 -92.9836,36.652 -59.8353,33.8308 -105.679,77.6721 -137.348,131.501 -31.8287,54.011 -47.6635,114.847 -47.6635,183.01 0,49.9841 8.66815,97.329 25.8452,141.83 17.3136,44.3418 42.6582,84.3382 76.1478,119.83 37.1752,39.3366 79.1737,68.5034 126.018,87.6598 46.8217,19.0199 99.9909,28.5071 159.166,28.5071 36.834,0 73.1674,-4.50471 109,-13.6734 35.6509,-9.16868 71.6658,-23.0013 107.817,-41.4979l16.176 -148.837 -40.9974 -1.97934c-16.995,55.3306 -44.0005,96.328 -81.1758,122.992 -36.9932,26.6642 -85.3392,39.9964 -144.992,39.9964 -72.5076,0 -128.68,-26.323 -168.494,-78.8324 -39.6778,-52.6687 -59.5168,-126.996 -59.5168,-223.324 0,-108.841 20.6807,-193.02 61.8374,-252.514 41.1794,-59.494 99.1719,-89.3207 174,-89.3207 28.0066,0 54.011,2.32061 78.1726,6.82532 24.0024,4.50471 46.6624,11.4893 67.8209,20.9992l0 146.995c0,44.1826 -5.98353,72.8489 -17.9961,85.6805 -11.9898,12.8316 -34.9911,20.1574 -68.822,22.1595l0 37.1752z"
     id="path246" /></glyph>
   <glyph
   unicode="D"
   horiz-adv-x="809"
   id="glyph248"><path
     d="M37.1752 0l0 44.0005c38.654,4.50471 64.6585,13.6734 77.8314,27.324 13.1501,13.6734 19.8162,41.4979 19.8162,83.3371l0 399.509c0,41.6572 -6.48405,69.1632 -19.4977,82.6546 -12.9909,13.5141 -39.1546,22.6828 -78.1499,27.1648l0 44.0005 258.816 0c75.5108,0 135.847,-4.48196 180.666,-13.4914 45.0016,-8.82741 85.8397,-23.5018 122.514,-43.6593 53.4877,-29.3489 94.8264,-69.3452 123.993,-120.33 29.3261,-51.0079 44.0005,-108.5 44.0005,-172.681 0,-107.339 -38.1763,-193.839 -114.665,-259.499 -76.4891,-65.5003 -178.323,-98.3301 -305.16,-98.3301l-310.165 0zm211.994 167.835c0,-50.0068 8.66815,-82.9959 25.8225,-98.5121 17.3363,-15.6527 50.3481,-23.4791 99.1719,-23.4791 79.6742,0 143.991,27.9838 192.838,84.1562 48.8238,56.1724 73.1674,130.841 73.1674,224.007 0,99.9909 -27.1648,177.003 -81.335,231.492 -54.1703,54.3295 -131.001,81.4943 -230.673,81.4943 -19.1564,0 -35.3324,-1.00105 -48.6645,-3.00314 -13.3321,-1.82008 -21.4997,-4.16344 -24.5029,-6.82532 -2.00209,-2.16135 -3.32165,-5.32375 -4.3227,-9.48719 -1.00105,-4.00419 -1.50157,-10.0105 -1.50157,-17.8368l0 -30.8504 0 -431.155z"
     id="path250" /></glyph>
   <glyph
   unicode="L"
   horiz-adv-x="720"
   id="glyph252"><path
     d="M56.1631 0l0 43.9992c35.5057,0.667344 60.8345,8.49347 76.0014,23.4935 15.1669,15.0001 22.6745,39.5098 22.6745,73.6809l0 438.991c0,30.8343 -7.50762,52.8415 -22.5077,66.1732 -15.0001,13.1649 -40.3288,19.99 -76.1682,20.6573l0 41.0113 314.001 0 0 -41.0113c-33.8374,0 -59.1661,-7.32562 -75.8346,-22.1589 -16.8353,-14.8332 -25.1619,-37.0073 -25.1619,-66.6737l0 -420.836c0,-46.6534 9.32765,-77.6546 27.8313,-93.1552 18.5036,-15.5006 56.3299,-23.175 113.342,-23.175 60.4856,0 110.324,11.8302 149.652,35.5057 39.1761,23.4935 69.51,60.1671 91.0015,109.672l45.0002 -12.179 -42.9982 -173.995 -596.833 0z"
     id="path254" /></glyph>
   <glyph
   unicode="E"
   horiz-adv-x="660"
   id="glyph256"><path
     d="M39.9951 0l0 43.9992c39.0093,4.50457 65.1722,13.6654 78.3371,27.3308 13.1649,13.6654 19.8383,41.4967 19.8383,83.509l0 405.321c0,41.8455 -6.67344,69.6768 -19.8383,83.3422 -13.1649,13.6654 -39.3278,22.8262 -78.3371,27.3308l0 37.1741 562.01 0 4.82308 -149.834 -41.9972 0c-11.3297,39.9951 -32.0022,68.1601 -61.6687,84.4949 -29.8333,16.1679 -78.1551,24.3277 -145.329,24.3277l-71.6637 0c-15.6674,0 -25.3287,-1.8352 -29.3328,-5.65726 -3.83723,-3.67039 -5.83926,-13.1649 -5.83926,-28.4986l0 -234.844 80.0055 0c60.8345,0 101.497,6.84028 121.669,20.5057 20.1568,13.6654 30.5007,38.3268 31.168,74.1662l42.9982 0.500508 0 -238.166 -42.9982 0.500508c-1.00102,36.8253 -11.6785,62.0023 -32.169,75.8346 -20.5057,13.8322 -60.6676,20.8242 -120.668,20.8242l-80.0055 0 0 -206.164c0,-38.9941 9.17598,-65.9912 27.4976,-80.8245 18.5036,-14.6664 52.5078,-22.174 102.331,-22.174 48.8375,0 90.3341,11.4965 124.672,34.1711 34.3379,22.8262 63.5039,58.4988 87.1642,107.003l44.4997 -11.178 -42.9982 -172.994 -554.169 0z"
     id="path258" /></glyph>
   <glyph
   unicode="N"
   horiz-adv-x="798"
   id="glyph260"><path
     d="M41.9972 0l0 43.9992 11.1628 0c33.3369,0 57.0124,10.1618 71.3452,30.3338 14.3327,20.172 21.4915,53.6605 21.4915,100.496l0 407.171c-16.3348,25.8293 -34.1559,45.8344 -53.6605,60.334 -19.5046,14.4996 -40.0103,22.6594 -61.5018,24.6614l0 41.0113 165.001 0 416.832 -533.178 0 375.002c0,45.5007 -7.00711,75.8346 -21.0062,90.8346 -13.9991,15.0001 -41.3298,23.6604 -81.9923,26.3298l0 41.0113 255.335 0 0 -41.0113c-39.343,-7.15878 -66.0064,-18.4885 -80.0055,-33.989 -13.9991,-15.3337 -20.991,-45.1671 -20.991,-88.9994l0 -430.179c0,-25.1619 0.652177,-47.9881 1.98687,-68.8274 1.33469,-20.8393 3.16988,-40.6625 5.83926,-59.1661l-55.6626 0c-11.8302,18.17 -25.1771,37.6594 -40.344,58.3319 -15.1669,20.6725 -38.16,50.339 -69.1611,88.6658l-310.831 392.171 0 -350.174c0,-48.4886 6.49144,-82.4928 19.5046,-102.331 12.998,-19.6715 35.3237,-29.4996 66.8254,-29.4996 4.33774,0 7.67446,0.166836 9.99499,0.333672 2.50254,0.166836 4.67141,0.333672 6.67344,0.667344l0 -43.9992 -256.836 0z"
     id="path262" /></glyph>
   <glyph
   unicode="I"
   horiz-adv-x="389"
   id="glyph264"><path
     d="M38.9941 0l0 43.9992c39.0093,4.50457 65.1722,13.6654 78.3371,27.3308 13.1649,13.6654 19.8383,41.4967 19.8383,83.509l0 399.33c0,41.6635 -6.67344,69.1611 -19.8383,82.6597 -13.1649,13.4986 -39.3278,22.6745 -78.3371,27.1791l0 43.9992 310.179 0 0 -43.9992c-39.343,-4.50457 -65.6727,-13.6806 -78.6708,-27.1791 -12.998,-13.4986 -19.5046,-40.9962 -19.5046,-82.6597l0 -399.33c0,-42.0123 6.67344,-69.8436 19.8383,-83.509 13.1649,-13.6654 39.3278,-22.8262 78.3371,-27.3308l0 -43.9992 -310.179 0z"
     id="path266" /></glyph>
   <glyph
   unicode="C"
   horiz-adv-x="665"
   id="glyph268"><path
     d="M595.165 198.171l43.9992 0 -18.17 -151.335c-44.4997,-20.8393 -86.4969,-36.3399 -125.658,-46.6686 -39.1761,-10.1618 -77.0024,-15.3337 -113.509,-15.3337 -51.158,0 -97.4929,8.82714 -139.156,26.3298 -41.6635,17.6695 -79.505,44.4997 -113.843,80.6728 -31.8202,34.1711 -55.4957,71.8305 -70.6626,113.16 -15.3337,41.3298 -22.993,88.4989 -22.993,141.174 0,51.158 6.65827,96.9924 19.8232,137.67 13.1649,40.8293 33.5037,77.4878 61.1682,110.491 33.8374,40.9962 74.8335,72.6647 123.004,95.1724 48.3369,22.4925 99.4949,33.6705 153.838,33.6705 32.6544,0 66.8254,-4.67141 102.498,-14.1811 35.8242,-9.49449 74.333,-23.8272 115.329,-42.9982l19.0041 -145.997 -42.9982 -3.83723c-15.0001,52.0073 -41.0113,92.3362 -78.0034,121.002 -37.1741,28.6655 -82.1743,42.9982 -134.834,42.9982 -67.6748,0 -120.334,-26.3298 -157.66,-79.1561 -37.5078,-52.6747 -56.1782,-127.008 -56.1782,-223.166 0,-106.669 20.5057,-191.331 61.5018,-253.667 40.9962,-62.336 96.1734,-93.504 165.501,-93.504 49.5048,0 91.3351,13.8322 125.506,41.3298 34.1559,27.4976 61.6687,69.51 82.4928,126.174z"
     id="path270" /></glyph>
   <glyph
   unicode="O"
   horiz-adv-x="767"
   id="glyph272"><path
     d="M164 379.84c0,-107.003 20.5057,-192.013 61.5018,-254.834 40.9962,-62.8365 95.8245,-94.1714 164.667,-94.1714 67.3259,0 119.834,27.1639 157.493,81.325 37.5078,54.1762 56.3451,130.011 56.3451,227.671 0,101.497 -21.3398,183.504 -64.0044,245.84 -42.6645,62.336 -98.0086,93.4888 -166.002,93.4888 -65.8396,0 -117.164,-26.3298 -154.338,-79.1561 -37.1589,-52.6747 -55.6626,-126.007 -55.6626,-220.163zm217.827 -394.006c-49.4896,0 -95.9914,9.66132 -139.657,28.9991 -43.6655,19.5046 -82.0075,47.5028 -115.329,84.328 -28.1801,30.8343 -49.8385,67.5079 -64.6717,109.839 -14.8332,42.3309 -22.174,88.6658 -22.174,139.172 0,50.157 7.50762,96.9924 22.5077,140.658 15.0001,43.4987 36.6584,81.6738 65.3239,114.177 33.6705,38.4936 72.8467,67.8264 117.68,88.3321 45.0002,20.4905 92.8215,30.8343 143.661,30.8343 44.4997,0 86.6637,-8.3418 126.158,-24.8434 39.5098,-16.6684 75.5009,-41.163 107.67,-73.332 34.8384,-34.8232 60.8345,-73.9994 78.1703,-117.331 17.1689,-43.4987 25.8293,-91.8357 25.8293,-144.829 0,-46.1681 -6.99195,-90.3341 -20.8242,-132.331 -13.8322,-42.0123 -33.5037,-79.1713 -59.1661,-111.34 -35.1721,-43.9992 -75.0004,-77.0024 -119.5,-99.1613 -44.3329,-22.174 -93.0035,-33.17 -145.678,-33.17z"
     id="path274" /></glyph>
   <glyph
   unicode="A"
   horiz-adv-x="720"
   id="glyph276"><path
     d="M235.83 342.833l185.006 0 -90.8346 265.997 -94.1714 -265.997zm-209 -342.833l0 43.9992c22.5077,4.1709 40.3288,13.4986 53.6757,27.6644 13.3317,13.9991 28.165,43.9992 44.4997,89.4999l172.827 487.844c0.333672,0.485341 1.00102,1.98687 2.00203,4.32257 4.83824,12.6644 7.32562,22.3409 7.32562,28.8323 0,4.50457 -1.00102,8.84231 -2.65421,13.1649 -1.8352,4.1709 -4.33774,8.50864 -7.67446,12.6795l106.002 0 201.174 -557.005c12.998,-37.1741 26.4966,-63.6707 40.4957,-79.3381 13.9991,-15.8343 31.168,-24.9951 51.3248,-27.6644l0 -43.9992 -271.988 0 0 43.9992c27.6644,3.33672 46.6534,8.49347 56.8304,15.8343 10.3287,7.32562 15.5006,18.8373 15.5006,34.5047 0,8.1598 -1.00102,16.8353 -2.83621,26.3298 -1.66836,9.49449 -4.1709,18.5036 -7.50762,27.3308l-47.8213 139.172 -221.179 0 -34.6564 -119.166c-2.66938,-9.17598 -4.67141,-18.3368 -6.17293,-27.4976 -1.50152,-9.34282 -2.16887,-17.6695 -2.16887,-25.1771 0,-20.1568 5.67243,-35.6574 16.8353,-46.1681 11.1628,-10.6623 30.6675,-18.989 58.3319,-25.1619l0 -43.9992 -222.165 0z"
     id="path278" /></glyph>
   <glyph
   unicode="U"
   horiz-adv-x="772"
   id="glyph280"><path
     d="M36.1742 666.993l0 40.9974 294.831 0 0 -40.9974c-34.5134,-5.16449 -57.5147,-14.9929 -69.3452,-29.3261 -11.6713,-14.3332 -17.4956,-44.8423 -17.4956,-91.8233l0 -321.677c0,-58.3337 14.6744,-102.494 44.1598,-132.343 29.5081,-29.9859 73.0081,-44.9788 130.682,-44.9788 30.4864,0 58.3337,5.483 83.3371,16.6538 25.1627,11.0115 45.6614,26.8462 61.6554,47.345 11.33,13.9919 19.3384,31.1462 24.1616,51.4856 4.66397,20.3394 7.00733,55.5126 7.00733,105.679l0 251.991c0,59.9945 -7.16658,99.0126 -21.4997,117.168 -14.3332,18.3374 -41.1567,28.1658 -80.4932,29.8266l0 40.9974 248.988 0 0 -40.9974c-36.4927,-5.16449 -61.6554,-17.1543 -75.488,-35.8329 -13.8326,-18.8379 -20.6807,-55.8311 -20.6807,-111.162l0 -278.837c0,-45.5021 -3.50366,-79.8335 -10.6702,-102.835 -7.16658,-22.8193 -19.3156,-44.6603 -36.1514,-65.159 -24.1616,-28.8256 -54.011,-50.6666 -89.6619,-65.341 -35.6737,-14.6517 -76.6711,-22.0003 -123.333,-22.0003 -85.8397,0 -149.838,20.3394 -191.678,60.8363 -41.8392,40.4969 -62.6564,102.175 -62.6564,185.171l0 314.01c0,46.6624 -6.5068,77.4901 -19.3384,92.6651 -12.8316,14.9929 -38.3355,24.6621 -76.3298,28.4843z"
     id="path282" /></glyph>
   <glyph
   unicode="R"
   horiz-adv-x="699"
   id="glyph284"><path
     d="M242.162 387.337c7.82636,-1.34231 15.8347,-2.34336 23.8431,-2.84388 8.16763,-0.500523 18.4966,-0.659781 30.8277,-0.659781 50.6666,0 90.663,12.9909 119.511,38.8361 28.9848,25.8225 43.5,60.9956 43.5,105.155 0,41.3387 -15.0157,74.669 -45.1836,100.173 -29.9859,25.3447 -69.6637,37.9943 -118.829,37.9943 -22.1595,0 -36.6747,-2.16135 -43.5,-6.66606 -6.82532,-4.3227 -10.1697,-14.8337 -10.1697,-31.3282l0 -30.8277 0 -209.833zm-205.169 -387.337l0 44.0005c34.5134,4.16344 58.5157,13.9919 71.8478,29.5081 13.3321,15.4935 19.9982,43.318 19.9982,83.6556l0 387.837c0,52.0089 -6.00628,84.3382 -17.9961,96.8285 -12.1718,12.5131 -36.6747,20.9992 -73.8499,25.1627l0 40.9974 248.169 0c98.5121,0 172.18,-14.6517 220.845,-44.1598 48.6645,-29.5081 72.9854,-74.1684 72.9854,-134.004 0,-47.0037 -14.4924,-85.4985 -43.6593,-115.826 -29.1669,-30.1679 -72.6669,-51.8269 -130.659,-64.8405 13.9919,-11.4893 27.1648,-23.1606 39.4958,-35.1504 12.4903,-12.1718 23.6611,-24.1844 33.6716,-36.1742l143.15 -168.836c0.682532,-0.659781 1.68358,-1.84284 3.00314,-3.50366 34.5134,-40.9974 60.8363,-61.4961 79.0144,-61.4961l2.00209 0 0 -44.0005 -131.842 0 -223.165 268.007c-25.6632,30.6684 -45.0016,50.1661 -57.8332,58.3337 -12.8316,8.32689 -26.6642,12.4903 -41.1794,12.4903 -1.00105,0 -2.66187,-0.159257 -4.98248,-0.500523 -2.1841,-0.341266 -3.84493,-0.500523 -4.84598,-0.500523l0 -177.663c0,-44.1598 6.00628,-73.8272 17.9961,-88.6609 12.1718,-14.6744 35.3324,-24.0024 69.8457,-27.506l0 -44.0005 -292.01 0z"
     id="path286" /></glyph>
   <glyph
   unicode="V"
   horiz-adv-x="708"
   id="glyph288"><path
     d="M340.834 -14.1739l-217.841 554.17c-0.318515,0.659781 -0.659781,1.50157 -1.00105,2.50262 -32.4885,82.9959 -65.6596,124.494 -99.1491,124.494l-4.84598 0 0 40.9974 262.661 0 0 -40.9974 -4.82322 0c-20.84,0 -36.4927,-3.50366 -47.1629,-10.329 -10.511,-6.82532 -15.8347,-16.995 -15.8347,-30.6684 0,-4.16344 0.841789,-9.48719 2.50262,-15.8347 1.50157,-6.32479 3.82218,-13.1501 6.82532,-20.3167l170.838 -435c17.9961,48.164 41.9985,111.981 72.3256,191.314 60.4951,157.346 90.845,247.668 90.845,271.011 0,15.3342 -7.34859,27.506 -22.0003,36.3334 -14.6744,9.00942 -35.0139,13.4914 -60.9956,13.4914l-4.00419 0 0 40.9974 225.668 0 0 -40.9974 -2.00209 0c-37.6758,0 -74.8282,-49.9841 -111.344,-149.816l-2.32061 -6.84807c-28.3478,-78.4911 -66.0008,-178.004 -112.845,-298.653 -47.0037,-120.672 -73.6679,-195.841 -80.152,-225.85l-45.3429 0z"
     id="path290" /></glyph>
   <glyph
   unicode="P"
   horiz-adv-x="622"
   id="glyph292"><path
     d="M34.1711 0l0 43.9992c38.6605,4.50457 64.6565,13.6654 77.8214,27.3308 13.18,13.6654 19.8383,41.4967 19.8383,83.509l0 398.329c0,46.5018 -6.82511,77.1692 -20.3237,91.8357 -13.5137,14.6664 -38.5088,21.992 -75.3341,21.992l0 41.0113 269.167 0c99.1613,0 172.493,-15.1669 219.829,-45.5007 47.3359,-30.167 70.9963,-77.0024 70.9963,-140.506 0,-57.6646 -22.6594,-105.167 -68.1601,-142.66 -45.3339,-37.5078 -104,-56.1782 -175.845,-56.1782 -27.6644,0 -45.6676,2.00203 -53.8274,6.17293 -7.99296,4.00406 -12.1639,11.997 -12.1639,23.6604 0,7.84129 1.50152,13.3317 4.67141,16.3348 3.15472,3.16988 9.49449,4.67141 19.3226,4.67141 1.8352,0 5.00508,-0.166836 9.00915,-0.500508 3.9889,-0.333672 6.99195,-0.500508 8.99398,-0.500508 42.6645,0 77.5029,13.8322 104.5,41.4967 26.9971,27.6644 40.4957,63.5039 40.4957,107.503 0,44.166 -14.1659,79.0044 -42.6645,104.166 -28.4986,25.1619 -67.9933,37.8414 -118.499,37.8414 -28.3318,0 -46.5018,-2.3357 -54.6616,-6.84028 -8.17497,-4.50457 -12.1639,-16.3348 -12.1639,-35.1721l0 -25.8293 0 -441.327c0,-41.6787 6.65827,-69.51 19.99,-83.3422 13.3317,-13.8322 39.8435,-22.993 79.1713,-27.4976l0 -43.9992 -310.163 0z"
     id="path294" /></glyph>
   <glyph
   unicode="Z"
   horiz-adv-x="664"
   id="glyph296"><path
     d="M32.169 0l0 37.1741 426.66 626.833 -167.003 0c-47.4876,0 -82.326,-7.50762 -104.5,-22.6745 -22.1589,-15.1669 -42.6645,-44.4997 -61.4867,-88.1653l-41.0113 -4.33774 6.84028 159.177 503.496 0 0 -37.1741 -419.502 -624.998 156.341 0c60.1671,0 108.656,9.32765 145.163,28.165 36.6736,18.6705 71.33,51.34 103.833,97.8266l48.8375 3.00305 -52.6747 -174.829 -544.993 0z"
     id="path298" /></glyph>
   <glyph
   unicode="S"
   horiz-adv-x="553"
   id="glyph300"><path
     d="M75.1672 46.8354l0 167.003 38.4936 -4.83824c13.9991,-58.3319 35.5057,-102.331 64.6717,-132.164 29.166,-29.8333 65.0054,-44.6666 107.67,-44.6666 33.3369,0 60.6676,10.8292 82.326,32.6695 21.6735,21.8252 32.5027,49.156 32.5027,82.1592 0,28.4986 -8.32663,54.1762 -25.1619,76.8356 -16.6684,22.6594 -55.9962,54.3279 -117.832,95.0055 -75.8346,49.8233 -123.671,88.8326 -143.342,117.164 -19.6563,28.3318 -29.4996,61.6687 -29.4996,100.162 0,55.3289 17.8363,99.8286 53.5089,133.499 35.6574,33.6705 82.6597,50.5058 141.325,50.5058 28.3318,0 58.1651,-4.67141 89.4999,-13.9991 31.5017,-9.17598 65.3391,-23.3419 101.831,-42.164l0 -145.011 -41.9972 0c-7.49245,51.34 -23.8272,90.3341 -48.9891,116.831 -25.3439,26.5118 -58.6808,39.8435 -100.344,39.8435 -33.3369,0 -60.334,-9.17598 -81.325,-27.3308 -21.0062,-18.17 -31.5017,-41.6787 -31.5017,-70.3441 0,-16.1679 2.83621,-31.3348 8.49347,-45.1671 5.67243,-13.8322 14.3327,-25.9961 25.6776,-36.8253 17.6543,-16.8353 54.161,-43.4987 109.824,-80.0055 29.6665,-19.5046 52.6747,-34.8384 68.8426,-46.0012 43.6655,-29.8333 74.6667,-58.6656 92.8215,-86.1632 18.17,-27.4976 27.3308,-58.4988 27.3308,-93.0035 0,-62.1692 -20.4905,-112.159 -61.3198,-150.168 -40.8445,-37.8263 -95.1724,-56.8304 -162.832,-56.8304 -36.1731,0 -70.8446,5.17192 -104.015,15.6674 -33.1549,10.3287 -65.3239,26.1629 -96.6587,47.3359z"
     id="path302" /></glyph>
   <glyph
   unicode="°"
   horiz-adv-x="329"
   id="glyph304"><path
     d="M165.175 670.014c-27.332,0 -50.8418,-9.52525 -70.1653,-28.5151 -19.5055,-18.8382 -29.1825,-41.9839 -29.1825,-69.1643 0,-27.1803 9.67693,-50.3261 29.1825,-69.498 19.3235,-19.1718 42.8333,-28.6668 70.1653,-28.6668 27.4837,0 50.8115,9.49492 69.8316,28.6668 19.1718,19.1718 28.6668,42.3176 28.6668,69.498 0,27.1803 -9.49492,50.3261 -28.6668,69.1643 -19.0202,18.9898 -42.3479,28.5151 -69.8316,28.5151zm-0.333687 39.9818c37.9797,0 70.499,-13.4992 97.3153,-40.4975 26.9983,-26.9983 40.4975,-59.4873 40.4975,-97.6794 0,-37.646 -13.4992,-70.1653 -40.6492,-97.1637 -27.1803,-26.9983 -59.8514,-40.4975 -98.1647,-40.4975 -38.3437,0 -70.8327,13.3475 -97.3457,40.0121 -26.4826,26.6646 -39.6481,59.3357 -39.6481,97.649 0,38.6774 13.3172,71.5001 40.1638,98.1951 26.8163,26.6646 59.3357,39.9818 97.831,39.9818z"
     id="path306" /></glyph>
  </font>
  <font
   id="FontID1"
   font-variant="normal"
   font-style="normal"
   font-weight="400"
   horiz-origin-x="0"
   horiz-origin-y="0"
   horiz-adv-x="90"
   vert-origin-x="45"
   vert-origin-y="90"
   vert-adv-y="90"
   style="font-style:normal;font-variant:normal;font-weight:400">
	<font-face
   font-family="Arial"
   id="font-face309">
	</font-face>
   <missing-glyph
   id="missing-glyph311"><path
     d="M0 0z"
     id="path313" /></missing-glyph>
   <glyph
   unicode="R"
   horiz-adv-x="722"
   id="glyph315"><path
     d="M78.6709 0l0 715.84 317.326 0c63.8355,0 112.336,-6.51256 145.503,-19.3504 33.1662,-12.817 59.6742,-35.4966 79.6696,-67.9969 19.829,-32.6668 29.6706,-68.6627 29.6706,-107.988 0,-50.8312 -16.3334,-93.5062 -49.3331,-128.337 -32.8333,-34.8307 -83.6645,-57.0109 -152.348,-66.4988 25.1763,-12.0056 44.173,-23.8447 57.1773,-35.663 27.6732,-25.3428 53.8274,-57.1773 78.6709,-95.1707l124.488 -194.836 -119.161 0 -94.6714 148.998c-27.6524,42.8414 -50.4983,75.8411 -68.4963,98.4998 -17.8315,22.8252 -33.832,38.8257 -48.0015,47.835 -14.1695,9.17584 -28.5054,15.5011 -43.1743,19.1631 -10.8196,2.16392 -28.3182,3.3291 -52.8287,3.3291l-109.819 0 0 -317.825 -94.6714 0zm94.6714 399.825l203.658 0c43.1743,0 77.1728,4.5151 101.496,13.5037 24.5105,9.00938 43.0078,23.3453 55.6792,43.0078 12.6506,19.6625 18.9967,40.9896 18.9967,64.1685 0,33.832 -12.172,61.6716 -36.849,83.4981 -24.4897,21.8264 -63.3154,32.6668 -116.498,32.6668l-226.483 0 0 -236.845z"
     id="path317" /></glyph>
  </font>
  <font
   id="FontID0"
   font-variant="normal"
   font-style="normal"
   font-weight="700"
   horiz-origin-x="0"
   horiz-origin-y="0"
   horiz-adv-x="90"
   vert-origin-x="45"
   vert-origin-y="90"
   vert-adv-y="90"
   style="font-style:normal;font-variant:normal;font-weight:700">
	<font-face
   font-family="Swis721 BT"
   id="font-face320">
	</font-face>
   <missing-glyph
   id="missing-glyph322"><path
     d="M0 0z"
     id="path324" /></missing-glyph>
   <glyph
   unicode="I"
   horiz-adv-x="307"
   id="glyph326"><path
     d="M79.169 0l0 719.17 148.003 0 0 -719.17 -148.003 0z"
     id="path328" /></glyph>
   <glyph
   unicode="L"
   horiz-adv-x="579"
   id="glyph330"><path
     d="M74.1669 0l0 719.158 148.01 0 0 -586.326 350.992 0 0 -132.832 -499.002 0z"
     id="path332" /></glyph>
   <glyph
   unicode="E"
   horiz-adv-x="652"
   id="glyph334"><path
     d="M74.1734 0l0 719.174 522.32 0 0 -124.996 -376.316 0 0 -153.344 344.157 0 0 -122.992 -344.157 0 0 -184.996 393.992 0 0 -132.846 -539.995 0z"
     id="path336" /></glyph>
   <glyph
   unicode="N"
   horiz-adv-x="741"
   id="glyph338"><path
     d="M74.1734 0l0 719.174 154.813 0 292.007 -494.169 0 494.169 146.003 0 0 -719.174 -152.836 0 -293.983 494.169 0 -494.169 -146.003 0z"
     id="path340" /></glyph>
   <glyph
   unicode="A"
   horiz-adv-x="686"
   id="glyph342"><path
     d="M341.829 575.168l-99.6642 -306.171 199.673 0 -100.009 306.171zm-85.9954 143.996l170.828 0 259.342 -719.164 -155.341 0 -48.8312 147.828 -278.662 0 -47.3351 -147.828 -155.836 0 255.833 719.164z"
     id="path344" /></glyph>
   <glyph
   unicode="P"
   horiz-adv-x="667"
   id="glyph346"><path
     d="M223.168 386.172l142.996 0c38.6691,0 66.8383,8.16139 84.5075,24.6613 17.4921,16.4999 26.3267,42.8384 26.3267,79.3343 0,34.1692 -8.66926,59.9998 -25.8306,77.669 -17.3385,17.4921 -43.0038,26.3267 -77.1729,26.3267l-150.826 0 0 -207.991zm-1.00393 -130.334l0 -255.838 -148.003 0 0 719.17 319.841 0c75.4958,0 132.661,-19.6653 171.661,-58.8423 38.8345,-39.1652 58.3344,-96.661 58.3344,-172.665 0,-74.1611 -18.9921,-131.326 -57.1651,-171.495 -37.9959,-40.1691 -92.5036,-60.3305 -163.003,-60.3305l-181.665 0z"
     id="path348" /></glyph>
   <glyph
   unicode="Z"
   horiz-adv-x="601"
   id="glyph350"><path
     d="M17.9999 0l0 124.996 391.168 463.841 -383.337 0 0 130.334 563.006 0 0 -125.007 -392.172 -464.325 383.337 0 0 -129.838 -562.002 0z"
     id="path352" /></glyph>
   <glyph
   unicode="S"
   horiz-adv-x="667"
   id="glyph354"><path
     d="M41.1613 222.164l146.007 0c5.50392,-39.3306 21.6613,-68.5037 48.3305,-87.6611 26.6692,-19.0039 65.173,-28.4999 115.665,-28.4999 43.0038,0 75.3304,7.66532 97.1689,22.996 21.8385,15.1653 32.6692,37.8306 32.6692,67.8304 0,43.6652 -62.669,79.665 -188.007,108.342 -1.66535,0.330707 -3.16534,0.661415 -4.32282,0.992122 -3.34251,0.673226 -8.33855,1.8307 -15.1771,3.50786 -67.1572,14.6574 -114.992,30.992 -143.492,49.3226 -25.4999,16.1692 -44.8345,38.1731 -58.1691,65.669 -13.3346,27.5078 -19.996,59.8344 -19.996,97.3343 0,70.0037 23.8227,123.673 71.3265,161.007 47.5037,37.1573 116.173,55.8305 206.007,55.8305 83.9997,0 149.657,-19.8306 196.995,-59.5037 47.3384,-39.8266 72.3304,-95.6689 74.9997,-167.999l-142.169 0c-2.66928,34.8306 -16.0039,61.3344 -40.0038,79.4997 -24.1653,18.1653 -58.4998,27.3306 -102.992,27.3306 -38.8345,0 -68.669,-7.49997 -89.6689,-22.6653 -20.9999,-15.1653 -31.4999,-36.6613 -31.4999,-64.6651 0,-38.1613 40.8305,-66.4958 122.503,-85.4997 22.1574,-5.1614 39.4959,-9.16532 51.8266,-12.1653 52.3344,-13.3346 89.6689,-23.8346 111.507,-31.1692 21.992,-7.49997 41.1613,-15.8267 57.4958,-25.0038 29.1613,-16.3228 51.1652,-37.8306 65.8344,-64.6651 14.6692,-26.8345 22.0039,-58.9958 22.0039,-96.4957 0,-74.8344 -25.1692,-132.838 -75.6729,-173.999 -50.5037,-41.1731 -121.5,-61.8305 -213.33,-61.8305 -90.5075,0 -161.503,20.9999 -212.834,62.9998 -51.5077,41.9998 -79.169,101.657 -83.0075,179.161z"
     id="path356" /></glyph>
  </font>
</defs>
</svg>
